13-й район: Кирпичные особняки / Brick Mansions (Camille Delamarre (Камиль Деламарр)) [2014 г., Боевик, Криминал, BDRip-AVC]

Ответить на тему
 

Inobat ®

Стаж: 6 лет 10 месяцев

Сообщений: 23

Симпатии: 10

-- -- -Название: 13-й район: Кирпичные особняки
Оригинальное название: Brick Mansions
Год выпуска: 2014
Страна: Франция, Канада
Жанр: Боевик, Криминал
Продолжительность: 01:21:53
Перевод: Дублированный (LINE)-Режиссер: Camille Delamarre (Камиль Деламарр)-В ролях: Paul Walker, David Belle, RZA, Gouchy Boy, Catalina Denis, Ayisha Issa, Carlo Rota, Andreas Apergis, Richard Zeman, Robert Maillet.., и др.-О фильме: История детектива под прикрытием, ищущего оружие массового уничтожения, похищенное наркодилером гетто Кирпичные дома. Детектив обращается за помощью к знатоку района Лино, единственному человеку, который не боится бандитов- -Качество: WEBRip 720p
Формат: MKV
Видео: 1280x568 (AVC, MPEG4) ~4315 kbps, 25.000 fps
Аудио 1: [RUS]AC-3; 48 KHz; 224 kbps; 2 ch; 16 bits Дублированный (LINE)
Аудио 2: [ENG]AC-3; 48 KHz; 224 kbps; 2 ch; 16 bits Английская оригинальная дорожка (LINE)
-

MI

Format : Matroska
Format version : Version 4 / Version 2
File size : 2.73 GiB
Duration : 1h 21mn
Overall bit rate : 4 765 Kbps
Movie name : BRICK.MANSION.2014.WEBRip.720p-GiGaBit
Encoded date : UTC 2014-06-28 08:25:11
Writing application : mkvmerge v6.9.1 ('Blue Panther') 64bit built on Apr 18 2014 18:23:38
Writing library : libebml v1.3.0 + libmatroska v1.4.1
Video #1
ID : 1
Format : AVC
Format/Info : Advanced Video Codec
Format profile : [email protected]
Format settings, CABAC : Yes
Format settings, ReFrames : 4 frames
Codec ID : V_MPEG4/ISO/AVC
Bit rate : 4 315 Kbps
Width : 1 280 pixels
Height : 568 pixels
Display aspect ratio : 2.25:1
Frame rate mode : Variable
Color space : YUV
Chroma subsampling : 4:2:0
Bit depth : 8 bits
Scan type : Progressive
Title : BRICK.MANSION.2014.WEBRip.720p-GiGaBit
Writing library : x264 core 130 r2273 b3065e6
Encoding settings : cabac=1 / ref=3 / deblock=1:-3:-3 / analyse=0x3:0x113 / me=hex / subme=7 / psy=1 / psy_rd=1.00:0.15 / mixed_ref=1 / me_range=16 / chroma_me=1 / trellis=1 / 8x8dct=1 / cqm=0 / deadzone=21,11 / fast_pskip=1 / chroma_qp_offset=-3 / threads=3 / lookahead_threads=1 / sliced_threads=0 / nr=0 / decimate=1 / interlaced=0 / bluray_compat=0 / constrained_intra=0 / bframes=3 / b_pyramid=2 / b_adapt=1 / b_bias=0 / direct=1 / weightb=1 / open_gop=0 / weightp=2 / keyint=250 / keyint_min=25 / scenecut=40 / intra_refresh=0 / rc_lookahead=40 / rc=2pass / mbtree=1 / bitrate=4315 / ratetol=1.0 / qcomp=0.60 / qpmin=0 / qpmax=69 / qpstep=4 / cplxblur=20.0 / qblur=0.5 / vbv_maxrate=62500 / vbv_bufsize=78125 / nal_hrd=none / ip_ratio=1.40 / aq=1:1.00
Language : Russian
Default : Yes
Forced : No
Color primaries : BT.601 PAL
Transfer characteristics : BT.709
Matrix coefficients : BT.601
Audio #2
ID : 2
Format : AC-3
Format/Info : Audio Coding 3
Mode extension : CM (complete main)
Format settings, Endianness : Big
Codec ID : A_AC3
Duration : 1h 21mn
Bit rate mode : Constant
Bit rate : 224 Kbps
Channel(s) : 2 channels
Channel positions : Front: L R
Sampling rate : 48.0 KHz
Bit depth : 16 bits
Compression mode : Lossy
Stream size : 131 MiB (5%)
Title : Russian AC-3 Line; Stereo (48 KHz; 224 kbps; 2 ch; 16 bits)
Language : Russian
Default : Yes
Forced : Yes
Audio #3
ID : 3
Format : AC-3
Format/Info : Audio Coding 3
Mode extension : CM (complete main)
Format settings, Endianness : Big
Codec ID : A_AC3
Duration : 1h 21mn
Bit rate mode : Constant
Bit rate : 224 Kbps
Channel(s) : 2 channels
Channel positions : Front: L R
Sampling rate : 48.0 KHz
Bit depth : 16 bits
Compression mode : Lossy
Stream size : 131 MiB (5%)
Title : English AC-3 Line; Mono (48 KHz; 224 kbps; 2 ch; 16 bits) Synchro - GiGaBit
Language : English
Default : No
Forced : No
-
-

Создавать темы 21-Июл-2014 18:26

[Профиль]  [ЛС] 

azik-1993

Стаж: 4 года 9 месяцев

Сообщений: 155

Симпатии: 23

Inobat, Скрины не соответствуют тех. данным

Создавать темы 21-Июл-2014 18:28

[Профиль]  [ЛС] 

Has&Hay

Стаж: 6 лет 7 месяцев

Сообщений: 138

Симпатии: 6

фильм на 2+ . Перекатали сценарий с первой части и в конце от второй части взяли одну сценку ))

Создавать темы 21-Июл-2014 23:01

[Профиль]  [ЛС] 

ForJ

Стаж: 4 года 5 месяцев

Сообщений: 56

По мне так нормальный фильм. Учитывая, что являюсь большим поклонником оригинала.

Создавать темы 30-Июл-2014 18:52

[Профиль]  [ЛС] 

Kenja_boy

Стаж: 4 года 9 месяцев

Сообщений: 17

Симпатии: 1

ma ak

Создавать темы 20-Авг-2014 13:23

[Профиль]  [ЛС] 
Показать сообщения:    
Ответить на тему

Текущее время: 23-Ноя 19:53

Часовой пояс: UTC + 5



Вы не можете начинать темы
Вы не можете отвечать на сообщения
Вы не можете редактировать свои сообщения
Вы не можете удалять свои сообщения
Вы не можете голосовать в опросах
Вы не можете прикреплять файлы к сообщениям
Вы не можете скачивать файлы