Молодость без молодости / Youth Without Youth (Френсис Форд Коппола) [2007 г., фэнтези, триллер, драма, мелодрама, детектив,, HDRip]

Ответить на тему
 

igor1968 ®

Стаж: 5 лет 5 месяцев

Сообщений: 366

Симпатии: 197

Молодость без молодости / Youth Without Youth Год выпуска: 2007
Страна:
Жанр: фэнтези, триллер, драма, мелодрама, детектив,
Продолжительность: 02:04:57.497
Перевод: Профессиональный (многоголосый, закадровый)
Режиссер: Френсис Форд Коппола
-В ролях: Тим Рот
Александра Мария Лара
Бруно Ганц
Андре Хеннике
Марчел Юреш
Адриан Пинтеа
Александра Пиричи
Флорин Пьерсик мл.
Золтан Бутуч
Адриана Титьени
...
- Фильм рассказывает историю профессора лингвистики, который, не сумев завершить труд всей своей жизни, принимает решение о самоубийстве. Но в день, когда он планировал осуществить задуманное, в него попадает молния. Вопреки всему профессору удаётся не только сохранить жизнь, но и обрести утраченную молодость. Однако он вынужден изменить имя и бежать из страны, чтобы скрыться от преследований нацистов, желающих использовать произошедший с ним феномен для создания новой человеческой расы.- -Качество: HDRip
Формат: AVI
Видео кодек: XviD
Аудио кодек: MPEG Audio
Видео: 640x272 (2.35:1), 23.976 fps, XviD build 73 ~700 kbps avg, 0.17 bit/pixel
Аудио: 48 kHz, MPEG Layer 3, 2 ch, ~128.00 kbps avg-

MediaInfo

General
Complete name : D:\Youth.Without.Youth_HDRip_[scarabey.org].avi
Format : AVI
Format/Info : Audio Video Interleave
File size : 749 MiB
Duration : 2h 4mn
Overall bit rate : 838 Kbps
Writing application : VirtualDubMod 1.5.10.3 | www.virtualdub-fr.org || (build 2550/release)
Writing library : VirtualDubMod build 2550/release
Video
ID : 0
Format : MPEG-4 Visual
Format profile : Advanced [email protected]
Format settings, BVOP : 1
Format settings, QPel : No
Format settings, GMC : No warppoints
Format settings, Matrix : Custom
Codec ID : XVID
Codec ID/Hint : XviD
Duration : 2h 4mn
Bit rate : 700 Kbps
Width : 640 pixels
Height : 272 pixels
Display aspect ratio : 2.35:1
Frame rate : 23.976 fps
Color space : YUV
Chroma subsampling : 4:2:0
Bit depth : 8 bits
Scan type : Progressive
Compression mode : Lossy
Bits/(Pixel*Frame) : 0.168
Stream size : 626 MiB (84%)
Writing library : XviD 73
Audio
ID : 1
Format : MPEG Audio
Format version : Version 1
Format profile : Layer 3
Codec ID : 55
Codec ID/Hint : MP3
Duration : 2h 4mn
Bit rate mode : Constant
Bit rate : 128 Kbps
Channel(s) : 2 channels
Sampling rate : 48.0 KHz
Compression mode : Lossy
Stream size : 114 MiB (15%)
Alignment : Aligned on interleaves
Interleave, duration : 42 ms (1.00 video frame)
Interleave, preload duration : 504 ms
Writing library : LAME3.99r
Encoding settings : -m s -V 4 -q 2 -lowpass 17 -b 128
- - -

Создавать темы 22-Июл-2014 11:12

[Профиль]  [ЛС] 
Показать сообщения:    
Ответить на тему

Текущее время: 22-Авг 16:20

Часовой пояс: UTC + 5



Вы не можете начинать темы
Вы не можете отвечать на сообщения
Вы не можете редактировать свои сообщения
Вы не можете удалять свои сообщения
Вы не можете голосовать в опросах
Вы не можете прикреплять файлы к сообщениям
Вы не можете скачивать файлы