Счастливые номера / Lucky Numbers (Нора Эфрон) [2000 г., комедия, криминал, ..., DVDRip]

Ответить на тему
 

igor1968 ®

Стаж: 5 лет 5 месяцев

Сообщений: 366

Симпатии: 197

Счастливые номера / Lucky Numbers«When they put their heads together... it's a no brainer» Год выпуска: 2000
Страна:
Жанр: комедия, криминал, ...
Продолжительность: 01:40:52.959
Перевод: Профессиональный (двухголосый)
Режиссер: Нора Эфрон

В ролях: Джон Траволта
Лиза Кудроу
Тим Рот
Эд О’Нил
Майкл Рапапорт
Дэрил Митчелл
Билл Пуллман
Ричард Шифф
Майкл Мур
Сэм МакМюррей
...
- Широко известный в узких кругах предсказатель погоды Расс Ричардс оказался на краю финансовой пропасти: он занял крупную сумму денег, чтобы открыть фирму по продаже снегомобилей, а зима выдалась необычайно теплой.
Чтобы спасти положение, его приятель, владелец стрипклуба Гиг, предложил провернуть махинацию со страховкой, в результате чего Расс задолжал еще 10 тысяч долларов одному «очень крутому парню». Рассу отчаянно нужны деньги… и как можно быстрее.
Гиг советует ему привлечь к делу Кристал, «девушку из лотерии», достающую шары из барабана. Поначалу все идет как надо, но из-за неуемной жадности Кристал Расс оказывается гораздо ближе к тюремной камере, чем к богатству…- -Качество: DVDRip
Формат: AVI
Видео кодек: XviD
Аудио кодек: AC3
Видео: 720x576 (1.25:1), 25 fps, XviD build 64 ~1583 kbps avg, 0.15 bit/pixel
Аудио: 48 kHz, AC3 Dolby Digital, 2/0 (L,R) ch, ~224.00 kbps avg-

MediaInfo

General
Complete name : Счастливые номера (2000).avi
Format : AVI
Format/Info : Audio Video Interleave
Format profile : OpenDML
File size : 1.28 GiB
Duration : 1h 40mn
Overall bit rate : 1 815 Kbps
Writing application : Lavf54.63.104
Video
ID : 0
Format : xvid
Codec ID : xvid
Duration : 1h 40mn
Bit rate : 1 578 Kbps
Width : 720 pixels
Height : 576 pixels
Display aspect ratio : 5:4
Frame rate : 25.000 fps
Standard : PAL
Bits/(Pixel*Frame) : 0.152
Stream size : 1.11 GiB (87%)
Audio
ID : 1
Format : AC-3
Format/Info : Audio Coding 3
Mode extension : CM (complete main)
Codec ID : 2000
Duration : 1h 40mn
Bit rate mode : Constant
Bit rate : 224 Kbps
Channel(s) : 2 channels
Channel positions : Front: L R
Sampling rate : 48.0 KHz
Bit depth : 16 bits
Compression mode : Lossy
Stream size : 162 MiB (12%)
Alignment : Aligned on interleaves
Interleave, duration : 32 ms (0.80 video frame)
- - -


Последний раз редактировалось: igor1968 (2014-07-22 19:01), всего редактировалось 2 раз(а)

Создавать темы 22-Июл-2014 15:00

[Профиль]  [ЛС] 

azik-1993

Стаж: 4 года 6 месяцев

Сообщений: 155

Симпатии: 23

igor1968, Шапку поправьте

Создавать темы 22-Июл-2014 16:45

[Профиль]  [ЛС] 

igor1968 ®

Стаж: 5 лет 5 месяцев

Сообщений: 366

Симпатии: 197

857191igor1968, Шапку поправьте
Спасибо, не заметил.

Создавать темы 22-Июл-2014 19:02

[Профиль]  [ЛС] 

dj_umka_82

Стаж: 4 года 3 месяца

Сообщений: 14

отмазка ... Не заметил...........................................................

Создавать темы 25-Июл-2014 00:41

[Профиль]  [ЛС] 
Показать сообщения:    
Ответить на тему

Текущее время: 17-Авг 16:40

Часовой пояс: UTC + 5



Вы не можете начинать темы
Вы не можете отвечать на сообщения
Вы не можете редактировать свои сообщения
Вы не можете удалять свои сообщения
Вы не можете голосовать в опросах
Вы не можете прикреплять файлы к сообщениям
Вы не можете скачивать файлы