Дивергент. / Divergent. (Нил Бёргер.) [2014 г., Фантастика, 6оевик, Приключения., WEB-DLRip ][Лицензия]

Ответить на тему
 

X3JumperRaZ0R ®

Стаж: 5 лет 4 месяца

Сообщений: 177

Симпатии: 151

-- ---Слоган: Ты Опасен, Если Ты Другой.
Оригинальное Название: Divergent.
Год выпуска: 2014.
Страна: США.
Жанр: Фантастика, 6оевик, Приключения.
Продолжительность: 02:11:40
Перевод: Профессиональный (полное дублирование) [Лицензия]-Режиссер: Нил Бёргер.-В ролях: Шейлин Вудли, Тео Джеймс, Эшли Джадд, Джай Кортни, Рэй Стивенсон, Зои Кравиц, Майлз Теллер, Тони Голдуин, Мэгги Кью, Кейт Уинслет...-Описание: Действие развивается на Земле в будущем, в деспотичном Чикаго. Все подростки, достигшие 16 лет, обязаны выбрать одну из пяти фракций и присоединиться к ней на всю оставшуюся жизнь. Каждая фракция представляет определенное качество: Искренность, Отречение, Бесстрашие, Дружелюбие и Эрудиция...-
Возраст: 12+
Бюджет: $85 000 000
Сборы в США: $150 947 895
Сборы в Мире: + $112 900 000 = $263 847 895
Сборы в России: $6 786 221-Качество: WEB-DLRip [Рип с WEB-DL 720p]
Формат: AVI.
Видео кодек: XviD.
Аудио кодек: AC3.
Видео: 1798 kb/s, 720x400...
Аудио: AC3, 384 kb/s (6 ch)...---

M1

Complete name : D:\kino-5\2014 ([email protected]) RaZ0R xJ\Divergent.2014.D.WEB-DLRip.21OOMB.([email protected]).RaZ0R.xJ.avi
Format : AVI
Format/Info : Audio Video Interleave
Format profile : OpenDML
File size : 2.05 GiB
Duration : 2h 13mn
Overall bit rate : 2 193 Kbps
Writing application : VirtualDubMod 1.5.10.3 | www.virtualdub-fr.org || (build 2550/release)
Writing library : VirtualDubMod build 2550/release
Video
ID : 0
Format : MPEG-4 Visual
Format profile : Advanced [email protected]
Format settings, BVOP : 2
Format settings, QPel : No
Format settings, GMC : No warppoints
Format settings, Matrix : Default (MPEG)
Codec ID : XVID
Codec ID/Hint : XviD
Duration : 2h 13mn
Bit rate : 1 796 Kbps
Width : 720 pixels
Height : 400 pixels
Display aspect ratio : 16:9
Frame rate : 25.000 fps
Color space : YUV
Chroma subsampling : 4:2:0
Bit depth : 8 bits
Scan type : Progressive
Compression mode : Lossy
Bits/(Pixel*Frame) : 0.249
Stream size : 1.68 GiB (82%)
Writing library : XviD 1.2.1 (UTC 2008-12-04)
Audio
ID : 1
Format : AC-3
Format/Info : Audio Coding 3
Mode extension : CM (complete main)
Codec ID : 2000
Duration : 2h 13mn
Bit rate mode : Constant
Bit rate : 384 Kbps
Channel(s) : 6 channels
Channel positions : Front: L C R, Side: L R, LFE
Sampling rate : 48.0 KHz
Bit depth : 16 bits
Compression mode : Lossy
Stream size : 368 MiB (18%)
Alignment : Split accross interleaves
Interleave, duration : 40 ms (1.00 video frame)
Interleave, preload duration : 500 msal

Скриншоты






- -


Последний раз редактировалось: X3JumperRaZ0R (2014-07-23 23:29), всего редактировалось 4 раз(а)

Создавать темы 23-Июл-2014 22:25

[Профиль]  [ЛС] 

X3JumperRaZ0R ®

Стаж: 5 лет 4 месяца

Сообщений: 177

Симпатии: 151

Ка4аем Смотрим и радуемс9)))

Создавать темы 23-Июл-2014 22:55

[Профиль]  [ЛС] 

alina

Стаж: 4 года 6 месяцев

Сообщений: 15

Симпатии: 1

залейте саундтрнеки к фильму)))

Создавать темы 26-Июл-2014 14:48

[Профиль]  [ЛС] 

marvel

Стаж: 6 лет 9 месяцев

Сообщений: 50

Симпатии: 1

Да фильм то что надо

Создавать темы 08-Авг-2014 11:33

[Профиль]  [ЛС] 

BlackJoker

Стаж: 2 года 3 месяца

Сообщений: 14

Симпатии: 3

Сколько можно ждать раздачи? Есть же сиды, уже больше месяца не могу скачать!

Создавать темы 07-Май-2017 22:03

[Профиль]  [ЛС] 
Показать сообщения:    
Ответить на тему

Текущее время: 22-Ноя 14:27

Часовой пояс: UTC + 5



Вы не можете начинать темы
Вы не можете отвечать на сообщения
Вы не можете редактировать свои сообщения
Вы не можете удалять свои сообщения
Вы не можете голосовать в опросах
Вы не можете прикреплять файлы к сообщениям
Вы не можете скачивать файлы