Ной / Noah (Даррен Аронофски / Darren Aronofsky) [2014, США, драма, приключения, фэнтези, BDRip 1080p] Dub [iTunes]+ Original Eng + Sub rus, eng

Ответить на тему
 

yusuf.0088 ®

Стаж: 4 года 1 месяц

Сообщений: 116

Симпатии: 69

Ной / Noah«Конец — это только начало»-- Год выпуска: 2014
Страна: США
Жанр: драма, приключения, фэнтези
Продолжительность: 02:17:53--Перевод: Профессиональный (дублированный) [iTunes]
Оригинальная аудиодорожка: английская
Cубтитры: русские, английские--Режиссер: Даррен Аронофски / Darren Aronofsky--В ролях: Рассел Кроу (Noah), Дженнифер Коннелли (Naameh), Рэй Уинстон (Tubal-cain), Энтони Хопкинс (Methuselah), Эмма Уотсон (Ila), Логан Лерман (Ham), Дуглас Бут (Shem), Ник Нолти (Samyaza), Марк Марголис (Magog), Кевин Дюран (Rameel), Лео МакХью Кэрролл (Japheth), Мартон Чокаш (Lamech)--Описание:
История отца, воина и спасителя Человечества и всего живого на Земле.-- --Качество: BDRip 1080p
Релиз: Yusuf
Контейнер: MKV
Видео: MPEG-4 AVC / High Profile 4.1 / 1920x1040 / 23.976 fps / 15200 kbps
Аудио 1: Русский / AC3 6ch / 48 KHz / 384 kbps |Дубляж|
Аудио 2: Английский / AC3 6ch / 48 KHz / 448 kbps |Original|

MediaInfo

Формат : Matroska
Версия формата : Version 4 / Version 2
Размер файла : 15,7 Гбайт
Продолжительность : 2 ч. 17 м.
Общий поток : 16,3 Мбит/сек
Название фильма : Noah.2014.BDRip.1080p.by.Yusuf
Дата кодирования : UTC 2014-07-20 14:30:44
Программа кодирования : mkvmerge v6.0.0 ('Coming Up For Air') built on Jan 20 2013 09:52:00
Библиотека кодирования : libebml v1.3.0 + libmatroska v1.4.0
Видео
Идентификатор : 1
Формат : AVC
Формат/Информация : Advanced Video Codec
Профиль формата : [email protected]
Параметр CABAC формата : Да
Параметр ReFrames формата : 4 кадра
Идентификатор кодека : V_MPEG4/ISO/AVC
Продолжительность : 2 ч. 17 м.
Битрейт : 15,2 Мбит/сек
Ширина : 1920 пикселей
Высота : 1040 пикселей
Соотношение сторон : 1,85:1
Режим частоты кадров : Постоянный
Частота кадров : 23,976 кадра/сек
Цветовое пространство : YUV
Субдискретизация насыщенности : 4:2:0
Битовая глубина : 8 бит
Тип развёртки : Прогрессивная
Бит/(Пиксели*Кадры) : 0.317
Размер потока : 14,6 Гбайт (93%)
Библиотека кодирования : x264 core 138 r2358 9e941d1
Настройки программы : cabac=1 / ref=4 / deblock=1:-3:-3 / analyse=0x3:0x113 / me=umh / subme=10 / psy=1 / psy_rd=1.00:0.00 / mixed_ref=1 / me_range=32 / chroma_me=1 / trellis=2 / 8x8dct=1 / cqm=0 / deadzone=21,11 / fast_pskip=1 / chroma_qp_offset=-2 / threads=12 / lookahead_threads=1 / sliced_threads=0 / nr=0 / decimate=1 / interlaced=0 / bluray_compat=0 / constrained_intra=0 / bframes=12 / b_pyramid=2 / b_adapt=1 / b_bias=0 / direct=1 / weightb=1 / open_gop=0 / weightp=2 / keyint=240 / keyint_min=23 / scenecut=40 / intra_refresh=0 / rc_lookahead=40 / rc=crf / mbtree=1 / crf=18.0 / qcomp=0.60 / qpmin=0 / qpmax=69 / qpstep=4 / vbv_maxrate=50000 / vbv_bufsize=62500 / crf_max=0.0 / nal_hrd=none / ip_ratio=1.40 / aq=1:1.00
Язык : English
Default : Да
Forced : Нет
Аудио #1
Идентификатор : 2
Формат : AC-3
Формат/Информация : Audio Coding 3
Расширение режима : CM (complete main)
Параметр Endianness формата : Big
Идентификатор кодека : A_AC3
Продолжительность : 2 ч. 17 м.
Вид битрейта : Постоянный
Битрейт : 384 Кбит/сек
Каналы : 6 каналов
Расположение каналов : Front: L C R, Side: L R, LFE
Частота : 48,0 КГц
Битовая глубина : 16 бит
Метод сжатия : С потерями
Размер потока : 379 Мбайт (2%)
Язык : Russian
Default : Да
Forced : Нет
Аудио #2
Идентификатор : 3
Формат : AC-3
Формат/Информация : Audio Coding 3
Расширение режима : CM (complete main)
Параметр Endianness формата : Big
Идентификатор кодека : A_AC3
Продолжительность : 2 ч. 17 м.
Вид битрейта : Постоянный
Битрейт : 448 Кбит/сек
Каналы : 6 каналов
Расположение каналов : Front: L C R, Side: L R, LFE
Частота : 48,0 КГц
Битовая глубина : 16 бит
Метод сжатия : С потерями
Размер потока : 442 Мбайт (3%)
Язык : English
Default : Нет
Forced : Нет
Текст #1
Идентификатор : 4
Формат : UTF-8
Идентификатор кодека : S_TEXT/UTF8
Идентификатор кодека/Информация : UTF-8 Plain Text
Язык : Russian
Default : Нет
Forced : Нет
Текст #2
Идентификатор : 5
Формат : UTF-8
Идентификатор кодека : S_TEXT/UTF8
Идентификатор кодека/Информация : UTF-8 Plain Text
Язык : English
Default : Нет
Forced : Нет
Меню
00:00:00.000 : :Chapter 01
00:04:48.955 : :Chapter 02
00:08:37.266 : :Chapter 03
00:12:23.033 : :Chapter 04
00:18:43.080 : :Chapter 05
00:23:25.487 : :Chapter 06
00:32:06.424 : :Chapter 07
00:37:27.203 : :Chapter 08
00:42:50.734 : :Chapter 09
00:54:35.647 : :Chapter 10
01:01:14.962 : :Chapter 11
01:03:28.596 : :Chapter 12
01:09:33.794 : :Chapter 13
01:19:18.336 : :Chapter 14
01:21:56.536 : :Chapter 15
01:29:12.347 : :Chapter 16
01:34:02.053 : :Chapter 17
01:40:27.354 : :Chapter 18
01:49:23.098 : :Chapter 19
01:55:57.825 : :Chapter 20
02:00:37.230 : :Chapter 21
02:11:32.676 : :Chapter 22
02:17:52.889 : :Chapter 23

Скриншоты

]

Создавать темы 25-Июл-2014 00:22

[Профиль]  [ЛС] 

DeFenDer007

Стаж: 4 года 4 месяца

Сообщений: 191

Симпатии: 9

вроде было

_________________
Подпись отключена за нарушение правил форума

Создавать темы 25-Июл-2014 06:43

[Профиль]  [ЛС] 
Показать сообщения:    
Ответить на тему

Текущее время: 18-Ноя 15:17

Часовой пояс: UTC + 5



Вы не можете начинать темы
Вы не можете отвечать на сообщения
Вы не можете редактировать свои сообщения
Вы не можете удалять свои сообщения
Вы не можете голосовать в опросах
Вы не можете прикреплять файлы к сообщениям
Вы не можете скачивать файлы