Трансформеры. Коллекция / Transformers. Collection (Майкл Бэй / Michael Bay) [2007-2011, США, фантастика, боевик, BDRip 1080p] Dub [Лицензия] + Original Eng + Sub rus, eng

Ответить на тему
 

yusuf.0088 ®

Стаж: 3 года 10 месяцев

Сообщений: 116

Симпатии: 69

Трансформеры. Коллекция / Transformers. Collection ----Трансформеры / Transformers
«Наш мир. Их война»-- Страна: США
Жанр: фантастика, боевик
Год выпуска: 2007
Продолжительность: 02:23:27--Перевод: Профессиональный (дублированный) [Лицензия]
Cубтитры: русские, английские
Оригинальная аудиодорожка: английская--Режиссер: Майкл Бэй / Michael Bay--В ролях: Шайа ЛаБаф, Меган Фокс, Джош Дюамель, Тайриз Гибсон, Джон Туртурро, Рэйчел Тейлор, Энтони Андерсон, Джон Войт, Кевин Данн, Джули Уайт--Описание:
В течение многих столетий две расы роботов-инопланетян — Автоботы и Десептиконы — вели войну, ставкой в которой была судьба Bселенной. И вот война докатилась до Земли. В то время, когда силы зла ищут ключ к верховной власти, наш последний шанс на спасение находится в руках юного землянина. Единственное, что стоит между несущими зло Десептиконами и высшей властью — это ключ, находящийся в руках простого парнишки.
Обычный подросток, Сэм Уитвикки озабочен повседневными хлопотами — школа, друзья, машины, девочки. Не ведая о том, что он является последним шансом человечества на спасение, Сэм вместе со своей подругой Микаэлой оказывается вовлеченным в противостояние Автоботов и Десептиконов. Только тогда Сэм понимает истинное значение семейного девиза Уитвикки — «без жертв нет победы!»-- --Качество: BDRip 1080p
Контейнер: MKV
Аудио кодек: AC3, DTS
Видео: MPEG4 AVC [email protected] / 1920x800 (2,40:1) / 12800 Kbps / 23.976 fps
Аудио 1: Русский / AC3 6 ch / 640 Kbps / 48 kHz |Дубляж|
Аудио 2: Английский DTS 6 ch / 1510 Kbps / 48 kHz |Original|

MediaInfo

Формат : Matroska
Версия формата : Version 4 / Version 2
Размер файла : 14,9 Гбайт
Продолжительность : 2 ч. 23 м.
Общий поток : 14,9 Мбит/сек
Дата кодирования : UTC 2014-06-25 13:06:01
Программа кодирования : mkvmerge v6.0.0 ('Coming Up For Air') built on Jan 20 2013 09:52:00
Библиотека кодирования : libebml v1.3.0 + libmatroska v1.4.0
Видео
Идентификатор : 1
Формат : AVC
Формат/Информация : Advanced Video Codec
Профиль формата : [email protected]
Параметр CABAC формата : Да
Параметр ReFrames формата : 5 кадров
Идентификатор кодека : V_MPEG4/ISO/AVC
Продолжительность : 2 ч. 23 м.
Битрейт : 12,8 Мбит/сек
Ширина : 1920 пикселей
Высота : 800 пикселей
Соотношение сторон : 2,40:1
Режим частоты кадров : Постоянный
Частота кадров : 23,976 кадра/сек
Цветовое пространство : YUV
Субдискретизация насыщенности : 4:2:0
Битовая глубина : 8 бит
Тип развёртки : Прогрессивная
Бит/(Пиксели*Кадры) : 0.346
Размер потока : 12,5 Гбайт (84%)
Библиотека кодирования : x264 core 68 r1183M f21daff
Настройки программы : cabac=1 / ref=5 / deblock=1:-2:-2 / analyse=0x3:0x113 / me=umh / subme=9 / psy_rd=0.8:0.7 / mixed_ref=1 / me_range=64 / chroma_me=1 / trellis=2 / 8x8dct=1 / cqm=2 / deadzone=21,11 / chroma_qp_offset=-4 / threads=6 / nr=0 / decimate=0 / mbaff=0 / bframes=3 / b_pyramid=1 / b_adapt=2 / b_bias=0 / direct=3 / wpredb=1 / keyint=250 / keyint_min=25 / scenecut=40 / rc=2pass / bitrate=12759 / ratetol=1.0 / qcomp=0.60 / qpmin=10 / qpmax=51 / qpstep=4 / cplxblur=20.0 / qblur=0.5 / vbv_maxrate=50000 / vbv_bufsize=50000 / ip_ratio=1.40 / pb_ratio=1.30 / aq=1:0.70
Default : Да
Forced : Нет
Аудио #1
Идентификатор : 2
Формат : AC-3
Формат/Информация : Audio Coding 3
Расширение режима : CM (complete main)
Параметр Endianness формата : Big
Идентификатор кодека : A_AC3
Продолжительность : 2 ч. 23 м.
Вид битрейта : Постоянный
Битрейт : 640 Кбит/сек
Каналы : 6 каналов
Расположение каналов : Front: L C R, Side: L R, LFE
Частота : 48,0 КГц
Битовая глубина : 16 бит
Метод сжатия : С потерями
Размер потока : 657 Мбайт (4%)
Заголовок : Dub
Язык : Russian
Default : Да
Forced : Нет
Аудио #2
Идентификатор : 3
Формат : DTS
Формат/Информация : Digital Theater Systems
Режим : 16
Параметр Endianness формата : Big
Идентификатор кодека : A_DTS
Продолжительность : 2 ч. 23 м.
Вид битрейта : Постоянный
Битрейт : 1510 Кбит/сек
Каналы : 6 каналов
Расположение каналов : Front: L C R, Side: L R, LFE
Частота : 48,0 КГц
Битовая глубина : 24 бит
Метод сжатия : С потерями
Размер потока : 1,51 Гбайт (10%)
Язык : English
Default : Нет
Forced : Нет
Текст #1
Идентификатор : 4
Формат : UTF-8
Идентификатор кодека : S_TEXT/UTF8
Идентификатор кодека/Информация : UTF-8 Plain Text
Заголовок : Forced
Язык : Russian
Default : Да
Forced : Нет
Текст #2
Идентификатор : 5
Формат : UTF-8
Идентификатор кодека : S_TEXT/UTF8
Идентификатор кодека/Информация : UTF-8 Plain Text
Заголовок : BD
Язык : Russian
Default : Нет
Forced : Нет
Текст #3
Идентификатор : 6
Формат : UTF-8
Идентификатор кодека : S_TEXT/UTF8
Идентификатор кодека/Информация : UTF-8 Plain Text
Язык : English
Default : Нет
Forced : Нет
Меню
00:00:00.000 : ru:Вступительные титры
00:02:04.708 : ru:Катар - неопознанный борт
00:08:54.534 : ru:Капитан Уитвики
00:15:33.641 : ru:Вражеский сигнал
00:22:21.382 : ru:Сэм и Микаэла
00:27:42.661 : ru:Борт №1
00:33:25.378 : ru:Живая машина Сэма
00:38:58.002 : ru:Новая атака десептиконов
00:45:13.920 : ru:Глен расшифровывает сигнал
00:51:46.437 : ru:Схватка Бамбли и десептикона
00:58:44.688 : ru:Прибытие автоботов
01:06:48.421 : ru:Новые факты
01:11:53.559 : ru:Очки Уитвики
01:16:56.445 : ru:"Сектор 7" действует
01:23:37.346 : ru:Побег Сэма и Микаэлы
01:29:04.172 : ru:Раскрытие секретных данных
01:36:28.741 : ru:Мегатрон
01:43:58.107 : ru:"Куб - главная цель"
01:49:45.746 : ru:В погоне за "Искрой"
01:56:54.007 : ru:Бойня в городе
02:03:09.882 : ru:Работа в команде
02:10:43.919 : ru:Новые друзья
02:15:02.303 : ru:Финальные титры

Скриншоты

----Трансформеры: Месть Падших / Transformers Revenge of the Fallen
«Месть неминуема»«(IMAX-версия)»-- Страна: США
Жанр: фантастика, боевик
Год выпуска: 2009
Продолжительность: 02:30:25--Перевод: Профессиональный (дублированный) [Лицензия]
Cубтитры: русские, английские
Оригинальная аудиодорожка: английская--Режиссер: Майкл Бэй / Michael Bay--В ролях: Шайа ЛаБаф, Меган Фокс, Джош Дюамель, Тайриз Гибсон, Джон Туртурро, Рамон Родригес, Кевин Данн, Джули Уайт, Изабель Лукас, Джон Бенжамин Хикки--Описание:
Прошло два года с тех пор, как юный Сэм Уитвикки спас Вселенную, предотвратив глобальную битву между враждующими воинственными расами инопланетных роботов. Несмотря на свои героические подвиги, Сэм остается обычным подростком с обычными проблемами — поступлением в колледж и родителями. Разумеется, отъезд будет тяжело воспринят лучшим другом, роботом — телохранителем Бамблби.
Сэм изо всех сил пытается забыть о конфликте в Мишн Сити и вернуться к нормальной жизни. Однако битва между Автоботами и Десептиконами, несмотря на гриф полной секретности, многое изменила…-- --Качество: BDRip 1080p
Контейнер: MKV
Аудио кодек: AC3, DTS
Видео: MPEG4 AVC [email protected] / 1920x1080 / 11000 Kbps / 23.976 fps
Аудио 1: Русский AC3, 6 ch, 448 Kbps / 48 kHz |Дубляж|
Аудио 2: Английский / DTS 6 ch / 1509 Kbps |Original|

MediaInfo

Формат : Matroska
Версия формата : Version 4 / Version 2
Размер файла : 13,6 Гбайт
Продолжительность : 2 ч. 30 м.
Общий поток : 12,9 Мбит/сек
Дата кодирования : UTC 2014-06-25 12:15:55
Программа кодирования : mkvmerge v6.0.0 ('Coming Up For Air') built on Jan 20 2013 09:52:00
Библиотека кодирования : libebml v1.3.0 + libmatroska v1.4.0
Видео
Идентификатор : 1
Формат : AVC
Формат/Информация : Advanced Video Codec
Профиль формата : [email protected]
Параметр CABAC формата : Да
Параметр ReFrames формата : 4 кадра
Идентификатор кодека : V_MPEG4/ISO/AVC
Продолжительность : 2 ч. 30 м.
Битрейт : 11,0 Мбит/сек
Ширина : 1920 пикселей
Высота : 1080 пикселей
Соотношение сторон : 16:9
Режим частоты кадров : Постоянный
Частота кадров : 23,976 кадра/сек
Цветовое пространство : YUV
Субдискретизация насыщенности : 4:2:0
Битовая глубина : 8 бит
Тип развёртки : Прогрессивная
Бит/(Пиксели*Кадры) : 0.221
Размер потока : 11,3 Гбайт (83%)
Библиотека кодирования : x264 core 75 r1259M dd026f2
Настройки программы : cabac=1 / ref=4 / deblock=1:0:0 / analyse=0x3:0x2 / me=umh / subme=7 / psy=1 / psy_rd=1.0:0.0 / mixed_ref=1 / me_range=16 / chroma_me=1 / trellis=1 / 8x8dct=1 / cqm=0 / deadzone=21,11 / chroma_qp_offset=-2 / threads=12 / nr=0 / decimate=1 / mbaff=0 / bframes=3 / b_pyramid=1 / b_adapt=1 / b_bias=0 / direct=1 / wpredb=1 / keyint=250 / keyint_min=25 / scenecut=40 / rc=2pass / mbtree=0 / bitrate=10979 / ratetol=1.0 / qcomp=0.60 / qpmin=10 / qpmax=51 / qpstep=4 / cplxblur=20.0 / qblur=0.5 / ip_ratio=1.40 / pb_ratio=1.30 / aq=1:1.00 / pulldown=0 / nal_hrd=0
Язык : English
Default : Да
Forced : Нет
Аудио #1
Идентификатор : 2
Формат : AC-3
Формат/Информация : Audio Coding 3
Расширение режима : CM (complete main)
Параметр Endianness формата : Big
Идентификатор кодека : A_AC3
Продолжительность : 2 ч. 30 м.
Вид битрейта : Постоянный
Битрейт : 448 Кбит/сек
Каналы : 6 каналов
Расположение каналов : Front: L C R, Side: L R, LFE
Частота : 48,0 КГц
Битовая глубина : 16 бит
Метод сжатия : С потерями
Размер потока : 482 Мбайт (3%)
Язык : Russian
Default : Да
Forced : Нет
Аудио #2
Идентификатор : 3
Формат : DTS
Формат/Информация : Digital Theater Systems
Режим : 16
Параметр Endianness формата : Big
Идентификатор кодека : A_DTS
Продолжительность : 2 ч. 30 м.
Вид битрейта : Постоянный
Битрейт : 1509 Кбит/сек
Каналы : 6 каналов
Расположение каналов : Front: L C R, Side: L R, LFE
Частота : 48,0 КГц
Битовая глубина : 24 бит
Метод сжатия : С потерями
Размер потока : 1,59 Гбайт (12%)
Язык : English
Default : Нет
Forced : Нет
Текст #1
Идентификатор : 4
Формат : UTF-8
Идентификатор кодека : S_TEXT/UTF8
Идентификатор кодека/Информация : UTF-8 Plain Text
Язык : Russian
Default : Да
Forced : Нет
Текст #2
Идентификатор : 5
Формат : UTF-8
Идентификатор кодека : S_TEXT/UTF8
Идентификатор кодека/Информация : UTF-8 Plain Text
Язык : English
Default : Нет
Forced : Нет

Скриншоты

----Трансформеры: Темная Сторона Луны / Transformers Dark of the Moon«Последний шанс цивилизации»-- Страна: США
Жанр: фантастика, боевик
Год выпуска: 2011
Продолжительность: 2:34:23--Перевод: Профессиональный (дублированный) [Лицензия]
Cубтитры: русские, английские
Оригинальная аудиодорожка: английская--Режиссер: Майкл Бэй / Michael Bay--В ролях: Шайа ЛаБаф, Роузи Хантингтон-Уайтли, Джош Дюамель, Джон Туртурро, Патрик Демпси, Фрэнсис МакДорманд, Кен Жонг, Алан Тьюдик, Джон Малкович, Тайриз Гибсон--Описание:
Для наших героев наступили печальные будни: Сэм потерял Микаэлу, правительство выпускает законодательный акт о выселении Автоботов с Земли, а пока Мегатрон скрывается после позорного поражения Фоллена, десептикон Шокуэйв, правитель Кибертрона, готовится нанести визит нашей планете с совсем недобрыми намерениями. Действие заключительной части трилогии на этот раз охватит не только Землю, но и Луну, темная сторона которой хранит не менее темные тайны.-- --Качество: BDRip 1080p
Контейнер: MKV
Аудио кодек: AC3, DTS
Видео: MPEG4 AVC [email protected] / 1920x800 (2,40:1) / 18200 Kbps / 23.976 fps
Аудио 1: Русский / AC3 6 ch / 640 Kbps / 48 kHz |Дубляж|
Аудио 2: Английский / DTS 6 ch / 1510 Kbps |Original|

MediaInfo

Формат : Matroska
Версия формата : Version 4 / Version 2
Размер файла : 21,9 Гбайт
Продолжительность : 2 ч. 34 м.
Общий поток : 20,3 Мбит/сек
Дата кодирования : UTC 2014-06-25 12:54:40
Программа кодирования : mkvmerge v6.0.0 ('Coming Up For Air') built on Jan 20 2013 09:52:00
Библиотека кодирования : libebml v1.3.0 + libmatroska v1.4.0
Видео
Идентификатор : 1
Формат : AVC
Формат/Информация : Advanced Video Codec
Профиль формата : [email protected]
Параметр CABAC формата : Да
Параметр ReFrames формата : 5 кадров
Идентификатор кодека : V_MPEG4/ISO/AVC
Продолжительность : 2 ч. 34 м.
Битрейт : 18,2 Мбит/сек
Ширина : 1920 пикселей
Высота : 800 пикселей
Соотношение сторон : 2,40:1
Режим частоты кадров : Постоянный
Частота кадров : 23,976 кадра/сек
Цветовое пространство : YUV
Субдискретизация насыщенности : 4:2:0
Битовая глубина : 8 бит
Тип развёртки : Прогрессивная
Бит/(Пиксели*Кадры) : 0.494
Размер потока : 19,2 Гбайт (87%)
Библиотека кодирования : x264 core 116 r2074 2641b9e
Настройки программы : cabac=1 / ref=5 / deblock=1:-3:-3 / analyse=0x3:0x113 / me=tesa / subme=11 / psy=1 / psy_rd=0.80:0.06 / mixed_ref=0 / me_range=24 / chroma_me=1 / trellis=2 / 8x8dct=1 / cqm=0 / deadzone=21,11 / fast_pskip=0 / chroma_qp_offset=-3 / threads=12 / sliced_threads=0 / nr=0 / decimate=1 / interlaced=0 / bluray_compat=0 / constrained_intra=0 / bframes=8 / b_pyramid=2 / b_adapt=2 / b_bias=0 / direct=3 / weightb=1 / open_gop=0 / weightp=2 / keyint=250 / keyint_min=23 / scenecut=40 / intra_refresh=0 / rc_lookahead=90 / rc=2pass / mbtree=1 / bitrate=18200 / ratetol=1.0 / qcomp=0.60 / qpmin=10 / qpmax=69 / qpstep=4 / cplxblur=20.0 / qblur=0.5 / ip_ratio=1.40 / aq=2:0.60
Язык : English
Default : Нет
Forced : Нет
Аудио #1
Идентификатор : 2
Формат : AC-3
Формат/Информация : Audio Coding 3
Расширение режима : CM (complete main)
Параметр Endianness формата : Big
Идентификатор кодека : A_AC3
Продолжительность : 2 ч. 34 м.
Вид битрейта : Постоянный
Битрейт : 640 Кбит/сек
Каналы : 6 каналов
Расположение каналов : Front: L C R, Side: L R, LFE
Частота : 48,0 КГц
Битовая глубина : 16 бит
Метод сжатия : С потерями
Размер потока : 707 Мбайт (3%)
Заголовок : DUB CCE
Язык : Russian
Default : Да
Forced : Нет
Аудио #2
Идентификатор : 3
Формат : DTS
Формат/Информация : Digital Theater Systems
Режим : 16
Параметр Endianness формата : Big
Идентификатор кодека : A_DTS
Продолжительность : 2 ч. 34 м.
Вид битрейта : Постоянный
Битрейт : 1510 Кбит/сек
Каналы : 6 каналов
Расположение каналов : Front: L C R, Side: L R, LFE
Частота : 48,0 КГц
Битовая глубина : 24 бит
Метод сжатия : С потерями
Размер потока : 1,63 Гбайт (7%)
Заголовок : Original
Язык : English
Default : Нет
Forced : Нет
Текст #1
Идентификатор : 4
Формат : UTF-8
Идентификатор кодека : S_TEXT/UTF8
Идентификатор кодека/Информация : UTF-8 Plain Text
Заголовок : Forced
Язык : Russian
Default : Да
Forced : Нет
Текст #2
Идентификатор : 5
Формат : UTF-8
Идентификатор кодека : S_TEXT/UTF8
Идентификатор кодека/Информация : UTF-8 Plain Text
Заголовок : Full
Язык : Russian
Default : Нет
Forced : Нет
Текст #3
Идентификатор : 6
Формат : UTF-8
Идентификатор кодека : S_TEXT/UTF8
Идентификатор кодека/Информация : UTF-8 Plain Text
Заголовок : English
Язык : English
Default : Нет
Forced : Нет
Меню
00:00:00.000 : en:Chapter 01
00:08:52.573 : en:Chapter 02
00:14:26.615 : en:Chapter 03
00:20:20.928 : en:Chapter 04
00:28:48.143 : en:Chapter 05
00:36:18.634 : en:Chapter 06
00:45:18.549 : en:Chapter 07
00:51:53.026 : en:Chapter 08
00:56:34.224 : en:Chapter 09
01:04:13.307 : en:Chapter 10
01:12:56.705 : en:Chapter 11
01:19:09.077 : en:Chapter 12
01:23:41.391 : en:Chapter 13
01:28:44.819 : en:Chapter 14
01:35:13.082 : en:Chapter 15
01:42:44.158 : en:Chapter 16
01:49:12.337 : en:Chapter 17
01:56:42.912 : en:Chapter 18
02:04:59.116 : en:Chapter 19
02:11:29.590 : en:Chapter 20
02:19:10.884 : en:Chapter 21
02:25:37.520 : en:Chapter 22

Скриншоты



Последний раз редактировалось: yusuf.0088 (2014-07-25 01:39), всего редактировалось 1 раз

Создавать темы 25-Июл-2014 00:53

[Профиль]  [ЛС] 

yusuf.0088 ®

Стаж: 3 года 10 месяцев

Сообщений: 116

Симпатии: 69

Почему то картинки не грузятся. Попробую позже.

Создавать темы 25-Июл-2014 00:55

[Профиль]  [ЛС] 

ustas

Стаж: 8 лет 7 месяцев

Сообщений: 53

Симпатии: 17

у тебя 100М канала, чтоль, столько тяжёлых раздач одновременно держать?

Создавать темы 25-Июл-2014 01:01

[Профиль]  [ЛС] 

yusuf.0088 ®

Стаж: 3 года 10 месяцев

Сообщений: 116

Симпатии: 69

858152у тебя 100М канала, чтоль, столько тяжёлых раздач одновременно держать?
нет, меньше.

Создавать темы 25-Июл-2014 01:03

[Профиль]  [ЛС] 

nigga22480

Стаж: 7 лет 3 месяца

Сообщений: 211

Симпатии: 13

Если будешь нормально раздавть буду качать, а то по 15-20кб не хочу. Какой скорость отдачи гарантируешь?

Создавать темы 25-Июл-2014 03:48

[Профиль]  [ЛС] 

yusuf.0088 ®

Стаж: 3 года 10 месяцев

Сообщений: 116

Симпатии: 69

Ну вы тут народ даете а, ппц, ни здрасте, ни спасибо...
nigga22480, ничего я тебе не гарантирую! У меня канал под 40Мбит, скорость отдачи 4,5 МБ/с. Сколько пойдет на эту раздачу - столько пойдет. Хочешь качай, не хочешь не качай!

Создавать темы 25-Июл-2014 09:02

[Профиль]  [ЛС] 

nigga22480

Стаж: 7 лет 3 месяца

Сообщений: 211

Симпатии: 13

yusuf.0088, чё такой грубый? Я просто спросил, потому что лежит у меня не скок таких торрентов недокаченных. Я просил тебя релизит?
Ты для кого концо концов стараешься?

Создавать темы 25-Июл-2014 23:23

[Профиль]  [ЛС] 

Michel

Стаж: 6 лет 8 месяцев

Сообщений: 78

Симпатии: 5

Качал с Юсуфа несколько релизов, скорость норм. Спасибо за релиз. Качать не буду у меня эти фильмы уже имеются!

Создавать темы 27-Сен-2014 11:00

[Профиль]  [ЛС] 

yusuf.0088 ®

Стаж: 3 года 10 месяцев

Сообщений: 116

Симпатии: 69

879264Спасибо огромное! Вот только скорости бы а то 50 гб уже неделю качаю а только 6% Автору Респект!
это потому что из скачавших только один помогает с раздачей.

Создавать темы 27-Сен-2014 13:43

[Профиль]  [ЛС] 
Показать сообщения:    
Ответить на тему

Текущее время: 23-Авг 15:09

Часовой пояс: UTC + 5



Вы не можете начинать темы
Вы не можете отвечать на сообщения
Вы не можете редактировать свои сообщения
Вы не можете удалять свои сообщения
Вы не можете голосовать в опросах
Вы не можете прикреплять файлы к сообщениям
Вы не можете скачивать файлы