Рейд 2 / The Raid 2: Berandal (Гарет Эванс) [2014, Индонезия, США, боевик, триллер, криминал] HDRip-AVC [iTunes]

Ответить на тему
 

Akmal89 ®

Стаж: 5 лет 6 месяцев

Сообщений: 237

Симпатии: 99

-- Информация о фильме:
Год выпуска: 2014
Страна: Индонезия, США
Жанр: боевик, триллер, криминал
Продолжительность: 02:30:27
Перевод: Дублированный [iTunes]--Режиссер: Гарет Эванс--В ролях: Ико Ювайс, Арифин Путра, Джули Эстелль, Яян Рухьян, Дони Аламсях, Ока Антара, Кадзуки Китамура, Тио Пакусодево, Алекс Аббад, Сесеп Ариф Рахман--Описание: Из трех полицейских, выбравшихся из кровавого ада первой части, в живых остается только офицер Рама. Уволившись из спецназа, он пробует начать жизнь заново, но вскоре прошлое жестко напоминает о себе — преступники убивают его брата. Чтобы отомстить, он внедряется в мощный криминальный синдикат, где быстро поднимается до самых вершин бандитской иерархии. Врагов здесь еще больше, и каждый неверный шаг может оказаться последним. Здесь нет ни близких, ни друзей, ни любви, ни тоски, ни жалости!-- --Файл:
Качество: HDRip-AVC
Формат: MKV
Видео: AVC, 1024x426, ~2100 kbps, 23.976 fps
Аудио: AC3, 6 ch, 384 kbps, 48 kHz
---

MediaInfo

D:\Torrents Downloads\Ok\The Raid 2 Berandal 2014..mkv
General
Unique ID : 213473087657290693836617459921257626647 (0xA0996BD2B6E7E34098A05DBEB949FC17)
Complete name : D:\Torrents Downloads\Ok\The Raid 2 Berandal 2014..mkv
Format : Matroska
Format version : Version 4 / Version 2
File size : 2.61 GiB
Duration : 2h 30mn
Overall bit rate : 2 486 Kbps
Encoded date : UTC 2014-07-24 01:56:59
Writing application : mkvmerge v6.1.0 ('Old Devil') built on Mar 2 2013 14:32:37
Writing library : libebml v1.3.0 + libmatroska v1.4.0
Video #1
ID : 1
Format : AVC
Format/Info : Advanced Video Codec
Format profile : [email protected]
Format settings, CABAC : Yes
Format settings, ReFrames : 10 frames
Codec ID : V_MPEG4/ISO/AVC
Duration : 2h 30mn
Bit rate : 2 100 Kbps
Width : 1 024 pixels
Height : 426 pixels
Display aspect ratio : 2.40:1
Frame rate mode : Constant
Frame rate : 23.976 fps
Color space : YUV
Chroma subsampling : 4:2:0
Bit depth : 8 bits
Scan type : Progressive
Bits/(Pixel*Frame) : 0.201
Stream size : 2.16 GiB (83%)
Writing library : x264 core 130 r2273 b3065e6
Encoding settings : cabac=1 / ref=10 / deblock=1:-2:-2 / analyse=0x3:0x133 / me=umh / subme=11 / psy=1 / psy_rd=1.00:0.10 / mixed_ref=1 / me_range=32 / chroma_me=1 / trellis=2 / 8x8dct=1 / cqm=0 / deadzone=21,11 / fast_pskip=0 / chroma_qp_offset=-3 / threads=6 / lookahead_threads=1 / sliced_threads=0 / nr=0 / decimate=1 / interlaced=0 / bluray_compat=0 / constrained_intra=0 / bframes=3 / b_pyramid=2 / b_adapt=2 / b_bias=0 / direct=3 / weightb=1 / open_gop=0 / weightp=2 / keyint=240 / keyint_min=23 / scenecut=40 / intra_refresh=0 / rc_lookahead=50 / rc=2pass / mbtree=1 / bitrate=2100 / ratetol=1.0 / qcomp=0.60 / qpmin=0 / qpmax=69 / qpstep=4 / cplxblur=20.0 / qblur=0.5 / ip_ratio=1.40 / aq=1:1.00
Default : Yes
Forced : No
Audio #3
ID : 3
Format : AC-3
Format/Info : Audio Coding 3
Mode extension : CM (complete main)
Format settings, Endianness : Big
Codec ID : A_AC3
Duration : 2h 30mn
Bit rate mode : Constant
Bit rate : 384 Kbps
Channel(s) : 6 channels
Channel positions : Front: L C R, Side: L R, LFE
Sampling rate : 48.0 KHz
Bit depth : 16 bits
Compression mode : Lossy
Stream size : 413 MiB (15%)
Default : Yes
Forced : No
Text #2
ID : 2
Format : UTF-8
Codec ID : S_TEXT/UTF8
Codec ID/Info : UTF-8 Plain Text
Default : Yes
Forced : No

Скриншоты


Создавать темы 25-Июл-2014 10:09

[Профиль]  [ЛС] 

hamilion

Стаж: 5 лет

Сообщений: 155

Симпатии: 14

ЗооЛооТооо!!!!

Создавать темы 26-Июл-2014 01:16

[Профиль]  [ЛС] 

Has&Hay

Стаж: 6 лет 5 месяцев

Сообщений: 138

Симпатии: 6

1 часть намного лучше 2-ой . Фильм на 3-ку.

Создавать темы 05-Авг-2014 19:09

[Профиль]  [ЛС] 
Показать сообщения:    
Ответить на тему

Текущее время: 24-Сен 04:44

Часовой пояс: UTC + 5



Вы не можете начинать темы
Вы не можете отвечать на сообщения
Вы не можете редактировать свои сообщения
Вы не можете удалять свои сообщения
Вы не можете голосовать в опросах
Вы не можете прикреплять файлы к сообщениям
Вы не можете скачивать файлы