Черная метка / Emmett's Mark (Кит Снайдер) [2002 г., триллер, драма, криминал, ..., DVDRip]

Ответить на тему
 

igor1968 ®

Стаж: 5 лет 8 месяцев

Сообщений: 366

Симпатии: 197

Черная метка / Emmett's Mark Год выпуска: 2002
Страна:
Жанр: триллер, драма, криминал, ...
Продолжительность: 01:40:05.839
Перевод: Профессиональный (многоголосый, закадровый)
Режиссер: Кит Снайдер

В ролях: Скотт Вулф
Грег Вуд
Ира Хоукинс
Кэнди Александр
Адам ЛеФевр
Даниэль Мэйсон
Джон Доумен
Бенжамин Джон Парилло
Катрина Ло
Гэбриел Бирн
Тим Рот

Детектива Эмметта постигло несчастье: у него обнаружились симптомы неизлечимой болезни. Эмметт не собирается умирать в больничной палате и бывший полицейский Марлоу подсказывает выход. Он устроит так, что Эмметт будет убит на задании и умрет легко и без мучений. Для этого Марлоу нанимает отставного спецназовца Джона.
Но прежде Эмметт должен завершить свое последнее дело: поймать серийного убийцу. Подобравшись уже совсем близко к маньяку, Эмметт узнает, что ему поставили ошибочный диагноз, и его болезнь не смертельна. Но Джон уже «взял след» и не намерен щадить свою будущую жертву.- -Качество: DVDRip
Формат: AVI
Видео кодек: XviD
Аудио кодек: MPEG Audio
Видео: 640x272 (2.35:1), 25 fps, XviD MPEG-4 ~795 kbps avg, 0.18 bit/pixel
Аудио: 44.100 kHz, MPEG Layer 3, 2 ch, ~160.00 kbps avg-

MediaInfo

General
Complete name : Chernaya_Metka.avi
Format : AVI
Format/Info : Audio Video Interleave
File size : 691 MiB
Duration : 1h 40mn
Overall bit rate : 966 Kbps
Writing application : VirtualDubMod 1.5.10.1 (build 2366/release)
Writing library : VirtualDubMod build 2366/release
Video
ID : 0
Format : MPEG-4 Visual
Format settings, BVOP : No
Format settings, QPel : No
Format settings, GMC : No warppoints
Format settings, Matrix : Default (H.263)
Codec ID : XVID
Codec ID/Hint : XviD
Duration : 1h 40mn
Bit rate : 796 Kbps
Width : 640 pixels
Height : 272 pixels
Display aspect ratio : 2.35:1
Frame rate : 25.000 fps
Color space : YUV
Chroma subsampling : 4:2:0
Bit depth : 8 bits
Scan type : Progressive
Compression mode : Lossy
Bits/(Pixel*Frame) : 0.183
Stream size : 570 MiB (82%)
Audio
ID : 1
Format : MPEG Audio
Format version : Version 1
Format profile : Layer 3
Mode : Joint stereo
Codec ID : 55
Codec ID/Hint : MP3
Duration : 1h 40mn
Bit rate mode : Constant
Bit rate : 160 Kbps
Channel(s) : 2 channels
Sampling rate : 44.1 KHz
Compression mode : Lossy
Stream size : 115 MiB (17%)
Alignment : Split accross interleaves
Interleave, duration : 40 ms (1.00 video frame)
Interleave, preload duration : 500 ms
- - -

Создавать темы 25-Июл-2014 13:02

[Профиль]  [ЛС] 
Показать сообщения:    
Ответить на тему

Текущее время: 21-Ноя 09:24

Часовой пояс: UTC + 5



Вы не можете начинать темы
Вы не можете отвечать на сообщения
Вы не можете редактировать свои сообщения
Вы не можете удалять свои сообщения
Вы не можете голосовать в опросах
Вы не можете прикреплять файлы к сообщениям
Вы не можете скачивать файлы