Счастливого Рождества / Happy Christmas (Джо Сванберг / Joe Swanberg) [2014, США, Комедия, драма, WEB-DL 720p] Dub [Чистый звук] + Original Eng + Sub eng

Ответить на тему
 

yusuf.0088 ®

Стаж: 3 года 11 месяцев

Сообщений: 116

Симпатии: 69

Счастливого Рождества / Happy Christmas
«Family is the gift that keeps on taking»
-- Год выпуска: 2014
Страна: США
Жанр: Комедия, драма
Продолжительность: 01:22:19--Перевод: Профессиональный (полное дублирование) [Чистый звук]
Оригинальная дорожка: английский
Cубтитры: Английские--Режиссер: Джо Сванберг / Joe Swanberg--В ролях: Анна Кендрик, Лина Данэм, Джо Сванберг, Мелани Лински, Марк Веббер--Описание: Джефф и Келли счастливы вместе и воспитывают малыша. Он – режиссер, она – писательница. Казалось бы, этот яркий творческий союз предназначен для интересной насыщенной жизни, полной интересных встреч и путешествий. Но быт, хлопоты о ребенке и каждодневная рутина, кажется, потушили пожар, некогда пылавший между супругами. Все меняется, когда в доме появляется сестра Джеффа, двадцатилетняя Дженни, которая только что рассталась с парнем и готова к новым приключениям. Она ставит в доме все с ног на голову, приводя в недоумение Келли и одновременно напоминая жене своего брата о том, что жизнь – это не только стирка, уборка и готовка. Сумеют ли Келли и Дженни найти компромисс и как повлияют друг на друга.-- --Качество: WEB-DL 720p
Формат: MKV
Аудио кодек: AC3--Видео: MPEG-4 AVC / [email protected] / 3819 Кбит/с, 1280x718 / 23,976 кадра/сек
Аудио: Русский AC3 2 ch / 192 Кбит/с / 48КГц |Дубляж|
Аудио 2: Английский / AC3 6ch / 48 KHz / 384 kbps |Original|

MediaInfo

Формат : Matroska
Версия формата : Version 4 / Version 2
Размер файла : 2,58 Гбайт
Продолжительность : 1 ч. 22 м.
Общий поток : 4484 Кбит/сек
Дата кодирования : UTC 2014-07-25 02:26:22
Программа кодирования : mkvmerge v6.8.0 ('Theme for Great Cities') 64bit built on Mar 2 2014 21:34:26
Библиотека кодирования : libebml v1.3.0 + libmatroska v1.4.1
Видео
Идентификатор : 1
Формат : AVC
Формат/Информация : Advanced Video Codec
Профиль формата : [email protected]
Параметр CABAC формата : Нет
Параметр ReFrames формата : 2 кадра
Идентификатор кодека : V_MPEG4/ISO/AVC
Продолжительность : 1 ч. 22 м.
Битрейт : 3819 Кбит/сек
Ширина : 1280 пикселей
Высота : 718 пикселей
Соотношение сторон : 16:9
Режим частоты кадров : Постоянный
Частота кадров : 23,976 кадра/сек
Цветовое пространство : YUV
Субдискретизация насыщенности : 4:2:0
Битовая глубина : 8 бит
Тип развёртки : Прогрессивная
Бит/(Пиксели*Кадры) : 0.173
Размер потока : 2,20 Гбайт (85%)
Язык : English
Default : Да
Forced : Нет
Основные цвета : BT.709
Характеристики трансфера : BT.709
Коэффициенты матрицы : BT.709
Аудио #1
Идентификатор : 2
Формат : AC-3
Формат/Информация : Audio Coding 3
Расширение режима : CM (complete main)
Параметр Endianness формата : Big
Идентификатор кодека : A_AC3
Продолжительность : 1 ч. 22 м.
Вид битрейта : Постоянный
Битрейт : 192 Кбит/сек
Каналы : 2 канала
Расположение каналов : Front: L R
Частота : 48,0 КГц
Битовая глубина : 16 бит
Метод сжатия : С потерями
Размер потока : 113 Мбайт (4%)
Язык : Russian
Default : Да
Forced : Да
Аудио #2
Идентификатор : 3
Формат : AC-3
Формат/Информация : Audio Coding 3
Расширение режима : CM (complete main)
Параметр Endianness формата : Big
Идентификатор кодека : A_AC3
Продолжительность : 1 ч. 22 м.
Вид битрейта : Постоянный
Битрейт : 384 Кбит/сек
Каналы : 6 каналов
Расположение каналов : Front: L C R, Side: L R, LFE
Частота : 48,0 КГц
Битовая глубина : 16 бит
Метод сжатия : С потерями
Размер потока : 226 Мбайт (9%)
Язык : English
Default : Нет
Forced : Нет
Текст
Идентификатор : 4
Формат : UTF-8
Идентификатор кодека : S_TEXT/UTF8
Идентификатор кодека/Информация : UTF-8 Plain Text
Язык : English
Default : Нет
Forced : Нет
Меню
00:00:00.000 : en:1
00:03:47.000 : en:2
00:08:56.000 : en:3
00:12:48.000 : en:4
00:17:34.000 : en:5
00:21:36.000 : en:6
00:27:00.000 : en:7
00:34:53.000 : en:8
00:43:35.000 : en:9
00:49:08.000 : en:10
00:52:34.000 : en:11
00:58:52.000 : en:12
01:02:41.000 : en:13
01:07:09.000 : en:14
01:10:33.000 : en:15
01:14:34.000 : en:16

Скриншоты

Создавать темы 26-Июл-2014 10:53

[Профиль]  [ЛС] 

Топик был перенесен из форума Фильмы за 2014 (новинки) в форум HD-AVC
Mixer City

Создавать темы 27-Июл-2014 01:39

 
Показать сообщения:    
Ответить на тему

Текущее время: 19-Сен 22:12

Часовой пояс: UTC + 5



Вы не можете начинать темы
Вы не можете отвечать на сообщения
Вы не можете редактировать свои сообщения
Вы не можете удалять свои сообщения
Вы не можете голосовать в опросах
Вы не можете прикреплять файлы к сообщениям
Вы не можете скачивать файлы