Дивергент / Divergent (Нил Бёргер / Neil Burger) [2014, США, Фантастика, боевик, приключения, экранизация, BDRip 1080p] Dub [iTunes]+ Original Eng + Sub rus, eng

Ответить на тему
 

yusuf.0088 ®

Стаж: 4 года 2 месяца

Сообщений: 116

Симпатии: 69

Дивергент / Divergent«Ты опасен, если ты другой»-- Год выпуска: 2014
Страна: США
Жанр: Фантастика, боевик, приключения, экранизация
Продолжительность: 02:19:40--Перевод: Профессиональный (дублированный) [iTunes]
Оригинальная аудиодорожка: английская
Cубтитры: русские, английские--Режиссер: Нил Бёргер / Neil Burger--В ролях: Шэйлин Вудли, Тео Джеймс, Эшли Джадд, Джай Кортни, Рэй Стивенсон, Зои Кравиц, Майлз Теллер, Тони Голдуин, Мэгги Кью, Кейт Уинслет--Описание:
Действие развивается на Земле в будущем, в деспотичном Чикаго. Все подростки, достигшие 16 лет, обязаны выбрать одну из пяти фракций и присоединиться к ней на всю оставшуюся жизнь. Каждая фракция представляет определенное качество: Искренность, Отречение, Бесстрашие, Дружелюбие и Эрудиция. Экранизация одноименного романа Вероники Рот.-- --Качество: BDRip 1080p
Контейнер: MKV
Видео: MPEG-4 AVC / High Profile 4.1 / 1920x800 / 23.976 fps / 9770 kbps
Аудио 1: Русский / AC3 6ch / 48 KHz / 384 kbps |Дубляж|
Аудио 2: Английский / DTS 6ch / 48 KHz / 1509 kbps |Original|
Сохранены оригинальные чаптеры как на Blu-Ray

MediaInfo

Формат : Matroska
Версия формата : Version 2
Размер файла : 11,4 Гбайт
Продолжительность : 2 ч. 19 м.
Общий поток : 11,7 Мбит/сек
Дата кодирования : UTC 2014-07-23 16:32:01
Программа кодирования : mkvmerge v5.2.0 ('I can't explain') built on Dec 18 2011 18:12:03
Библиотека кодирования : libebml v1.2.3 + libmatroska v1.3.0
Видео
Идентификатор : 1
Формат : AVC
Формат/Информация : Advanced Video Codec
Профиль формата : [email protected]
Параметр CABAC формата : Да
Параметр ReFrames формата : 5 кадров
Идентификатор кодека : V_MPEG4/ISO/AVC
Продолжительность : 2 ч. 19 м.
Битрейт : 9770 Кбит/сек
Ширина : 1920 пикселей
Высота : 800 пикселей
Соотношение сторон : 2,40:1
Режим частоты кадров : Постоянный
Частота кадров : 23,976 кадра/сек
Цветовое пространство : YUV
Субдискретизация насыщенности : 4:2:0
Битовая глубина : 8 бит
Тип развёртки : Прогрессивная
Бит/(Пиксели*Кадры) : 0.265
Размер потока : 9,30 Гбайт (82%)
Библиотека кодирования : x264 core 138 r2356 a1d3d17
Настройки программы : cabac=1 / ref=5 / deblock=1:-3:-3 / analyse=0x3:0x113 / me=umh / subme=10 / psy=1 / psy_rd=1.00:0.05 / mixed_ref=1 / me_range=32 / chroma_me=1 / trellis=2 / 8x8dct=1 / cqm=0 / deadzone=21,11 / fast_pskip=0 / chroma_qp_offset=-2 / threads=18 / lookahead_threads=1 / sliced_threads=0 / nr=0 / decimate=1 / interlaced=0 / bluray_compat=0 / constrained_intra=0 / bframes=4 / b_pyramid=2 / b_adapt=2 / b_bias=0 / direct=3 / weightb=1 / open_gop=0 / weightp=2 / keyint=250 / keyint_min=23 / scenecut=40 / intra_refresh=0 / rc=2pass / mbtree=0 / bitrate=9770 / ratetol=1.0 / qcomp=0.70 / qpmin=0 / qpmax=69 / qpstep=4 / cplxblur=20.0 / qblur=0.5 / ip_ratio=1.40 / pb_ratio=1.30 / aq=2:1.00
Язык : English
Default : Да
Forced : Нет
Аудио #1
Идентификатор : 2
Формат : AC-3
Формат/Информация : Audio Coding 3
Расширение режима : CM (complete main)
Параметр Endianness формата : Big
Идентификатор кодека : A_AC3
Продолжительность : 2 ч. 19 м.
Вид битрейта : Постоянный
Битрейт : 384 Кбит/сек
Каналы : 6 каналов
Расположение каналов : Front: L C R, Side: L R, LFE
Частота : 48,0 КГц
Битовая глубина : 16 бит
Метод сжатия : С потерями
Размер потока : 384 Мбайт (3%)
Заголовок : DUB [iTunes]
Язык : Russian
Default : Да
Forced : Нет
Аудио #2
Идентификатор : 3
Формат : DTS
Формат/Информация : Digital Theater Systems
Режим : 16
Параметр Endianness формата : Big
Идентификатор кодека : A_DTS
Продолжительность : 2 ч. 19 м.
Вид битрейта : Постоянный
Битрейт : 1509 Кбит/сек
Каналы : 6 каналов
Расположение каналов : Front: L C R, Side: L R, LFE
Частота : 48,0 КГц
Битовая глубина : 24 бит
Метод сжатия : С потерями
Размер потока : 1,47 Гбайт (13%)
Язык : English
Default : Нет
Forced : Нет
Текст #1
Идентификатор : 4
Формат : UTF-8
Идентификатор кодека : S_TEXT/UTF8
Идентификатор кодека/Информация : UTF-8 Plain Text
Заголовок : Full (notabenoid)
Язык : Russian
Default : Нет
Forced : Нет
Текст #2
Идентификатор : 5
Формат : UTF-8
Идентификатор кодека : S_TEXT/UTF8
Идентификатор кодека/Информация : UTF-8 Plain Text
Заголовок : Full
Язык : English
Default : Нет
Forced : Нет
Текст #3
Идентификатор : 6
Формат : UTF-8
Идентификатор кодека : S_TEXT/UTF8
Идентификатор кодека/Информация : UTF-8 Plain Text
Заголовок : SDH
Язык : English
Default : Нет
Forced : Нет
Текст #4
Идентификатор : 7
Формат : UTF-8
Идентификатор кодека : S_TEXT/UTF8
Идентификатор кодека/Информация : UTF-8 Plain Text
Заголовок : SDH-COLORED
Язык : English
Default : Нет
Forced : Нет
Меню
00:00:00.000 : en:00:00:00.000
00:07:57.477 : en:00:07:57.477
00:15:29.595 : en:00:15:29.595
00:23:31.035 : en:00:23:31.035
00:33:56.618 : en:00:33:56.618
00:38:52.956 : en:00:38:52.956
00:44:24.328 : en:00:44:24.328
00:53:37.506 : en:00:53:37.506
01:00:02.682 : en:01:00:02.682
01:06:32.071 : en:01:06:32.071
01:13:19.603 : en:01:13:19.603
01:20:08.137 : en:01:20:08.137
01:28:41.441 : en:01:28:41.441
01:35:54.957 : en:01:35:54.957
01:46:19.373 : en:01:46:19.373
01:57:54.692 : en:01:57:54.692

Скриншоты

Создавать темы 26-Июл-2014 11:05

[Профиль]  [ЛС] 

4niko

Стаж: 7 лет 1 месяц

Сообщений: 78

Симпатии: 11

Ацкистойное кинцо. Для деффченок - фанатов семуркоу.
Сплошная молодежь и любовь.
Жене (ударение на 2 слог) понравилось.
Но за раздачу в HD спасибо !!!

Создавать темы 26-Июл-2014 14:20

[Профиль]  [ЛС] 

Michel

Стаж: 7 лет

Сообщений: 78

Симпатии: 5

А мне кинцо понравилось, надеюсь на продолжение! За релиз респект и плюс в репу!

Создавать темы 26-Июл-2014 17:35

[Профиль]  [ЛС] 

yusuf.0088 ®

Стаж: 4 года 2 месяца

Сообщений: 116

Симпатии: 69

Пожалуйста.
Я еще не успел посмотреть, надеюсь сегодня прлучится.

Создавать темы 26-Июл-2014 18:11

[Профиль]  [ЛС] 

SengokuBasara

Стаж: 4 года 6 месяцев

Сообщений: 4

Фильм крутой ! 3 киниг есть! еще 2 части выйдут Ивергент там про мятежницу и еще 3 часть не помню название

Создавать темы 08-Авг-2014 14:29

[Профиль]  [ЛС] 

vardas

Стаж: 5 лет 2 месяца

Сообщений: 17

mb спасибо !

Создавать темы 27-Авг-2014 20:43

[Профиль]  [ЛС] 
Показать сообщения:    
Ответить на тему

Текущее время: 12-Дек 11:20

Часовой пояс: UTC + 5



Вы не можете начинать темы
Вы не можете отвечать на сообщения
Вы не можете редактировать свои сообщения
Вы не можете удалять свои сообщения
Вы не можете голосовать в опросах
Вы не можете прикреплять файлы к сообщениям
Вы не можете скачивать файлы