Новый Человек-паук: Высокое напряжение / The Amazing Spider-Man 2: Rise of Electro (Марк Уэбб / Marc Webb) [2014, США, Фэнтези, боевик, приключения, комикс, WEB-DL 1080p] Dub [Чистый звук] + Original Eng

Тема закрыта
 

yusuf.0088 ®

Стаж: 4 года

Сообщений: 116

Симпатии: 69

Новый Человек-паук: Высокое напряжение / The Amazing Spider-Man 2: Rise of Electro
«No more secrets»
-- Год выпуска: 2014
Страна: США
Жанр: Фэнтези, боевик, приключения, комикс
Продолжительность: 02:21:40--Перевод: Профессиональный (полное дублирование) [Чистый звук]
Оригинальная дорожка: английский
Cубтитры: нет--Режиссер: Марк Уэбб / Marc Webb--В ролях: Эндрю Гарфилд, Эмма Стоун, Джейми Фокс, Дэйн ДеХаан, Колм Фиор, Фелисити Джонс, Пол Джаматти, Салли Филд, Эмбет Дэвидц, Кэмпбелл Скотт--Описание: Питер Паркер под маской Человека-паука по-прежнему спасает мир от злодеев и преступников, а свободное время проводит со своей возлюбленной Гвен, но школьная пора близится к концу, и впереди героев ждет взрослая жизнь. Питер помнит о том, что дал отцу Гвен слово навсегда уйти из жизни девушки, тем самым больше не подвергая ее опасности. Однако сдержать это обещание не так просто. Судьба готовит Питеру сюрпризы: на его пути появится новый противник — Электро, а также ему будет суждено вновь встретиться с давним приятелем Гарри Озборном и узнать много нового о прошлом своей семьи.-- --Качество: WEB-DL 1080p
Формат: MKV--Видео: MPEG-4 AVC / 3875 Кбит/с, 1916x796 / 23,976 кадра/сек
Аудио: Русский AC3 2 ch / 384 Кбит/с / 48КГц |Дубляж|
Аудио 2: Английский / AC3 6ch / 48 KHz / 384 kbps |Original|

MediaInfo

Формат : Matroska
Версия формата : Version 4 / Version 2
Размер файла : 4,68 Гбайт
Продолжительность : 2 ч. 21 м.
Общий поток : 4737 Кбит/сек
Дата кодирования : UTC 2014-07-26 17:22:21
Программа кодирования : mkvmerge v7.0.0 ('Where We Going') 64bit built on Jun 9 2014 15:16:27
Библиотека кодирования : libebml v1.3.0 + libmatroska v1.4.1
Видео
Идентификатор : 1
Формат : AVC
Формат/Информация : Advanced Video Codec
Профиль формата : [email protected]
Параметр CABAC формата : Да
Параметр ReFrames формата : 5 кадров
Идентификатор кодека : V_MPEG4/ISO/AVC
Продолжительность : 2 ч. 21 м.
Битрейт : 3875 Кбит/сек
Ширина : 1916 пикселей
Высота : 796 пикселей
Соотношение сторон : 2,40:1
Режим частоты кадров : Постоянный
Частота кадров : 23,976 кадра/сек
Цветовое пространство : YUV
Субдискретизация насыщенности : 4:2:0
Битовая глубина : 8 бит
Тип развёртки : Прогрессивная
Бит/(Пиксели*Кадры) : 0.106
Размер потока : 3,83 Гбайт (82%)
Язык : English
Default : Да
Forced : Нет
Основные цвета : BT.709
Характеристики трансфера : BT.709
Коэффициенты матрицы : BT.709
Аудио #1
Идентификатор : 2
Формат : AC-3
Формат/Информация : Audio Coding 3
Расширение режима : CM (complete main)
Параметр Endianness формата : Big
Идентификатор кодека : A_AC3
Продолжительность : 2 ч. 21 м.
Вид битрейта : Постоянный
Битрейт : 384 Кбит/сек
Каналы : 2 канала
Расположение каналов : Front: L R
Частота : 44,1 КГц
Битовая глубина : 16 бит
Метод сжатия : С потерями
Размер потока : 389 Мбайт (8%)
Default : Да
Forced : Нет
Аудио #2
Идентификатор : 3
Формат : AC-3
Формат/Информация : Audio Coding 3
Расширение режима : CM (complete main)
Параметр Endianness формата : Big
Идентификатор кодека : A_AC3
Продолжительность : 2 ч. 21 м.
Вид битрейта : Постоянный
Битрейт : 384 Кбит/сек
Каналы : 6 каналов
Расположение каналов : Front: L C R, Side: L R, LFE
Частота : 48,0 КГц
Битовая глубина : 16 бит
Метод сжатия : С потерями
Размер потока : 389 Мбайт (8%)
Default : Нет
Forced : Нет
Меню
00:00:00.000 : en:1
00:07:07.000 : en:2
00:17:06.000 : en:3
00:22:21.000 : en:4
00:33:13.000 : en:5
00:45:13.000 : en:6
00:50:55.000 : en:7
00:59:48.000 : en:8
01:12:45.000 : en:9
01:22:51.000 : en:10
01:31:47.000 : en:11
01:38:33.000 : en:12
01:44:19.000 : en:13
01:49:21.000 : en:14
01:56:15.000 : en:15
02:03:09.000 : en:16

Скриншоты

Создавать темы 27-Июл-2014 09:19

[Профиль]  [ЛС] 

azik-1993

Стаж: 4 года 8 месяцев

Сообщений: 155

Симпатии: 23

yusuf.0088, это 720p , а не 1080p

Создавать темы 27-Июл-2014 09:50

[Профиль]  [ЛС] 

yusuf.0088 ®

Стаж: 4 года

Сообщений: 116

Симпатии: 69

858989yusuf.0088, это 720p , а не 1080p
Ошибаетесь.
Просто битрейт для 1080p ниже плинтуса, для WEB-DL это нормально. Модеры перенесут тему в HD-AVC.

Создавать темы 27-Июл-2014 10:00

[Профиль]  [ЛС] 

Топик был перенесен из форума Зарубежное кино в форум HD-AVC
Иви

Создавать темы 29-Июл-2014 15:40

 

Иви

Стаж: 5 лет 9 месяцев

Сообщений: 688

Симпатии: 65

The Amazing Spider-Man 2: Rise of Electro / Новый Человек-паук: Высокое напряжение (Марк Уэбб) [2014 г., фэнтези, боевик, приключения, WEBDL 1080p] [Лицензия/iTunes]

Создавать темы 02-Авг-2014 11:37

[Профиль]  [ЛС] 
Показать сообщения:    
Тема закрыта

Текущее время: 17-Окт 23:38

Часовой пояс: UTC + 5



Вы не можете начинать темы
Вы не можете отвечать на сообщения
Вы не можете редактировать свои сообщения
Вы не можете удалять свои сообщения
Вы не можете голосовать в опросах
Вы не можете прикреплять файлы к сообщениям
Вы не можете скачивать файлы