Мачо и ботан 2 / 22 Jump Street (Фил Лорд, Кристофер Миллер) [2014г., Боевик, комедия, криминал, WEB-DLRip] [iTunes]

Страницы :  1, 2  След.

Ответить на тему
 

Suxrob89 ®

Стаж: 7 лет 2 месяца

Сообщений: 933

Симпатии: 564

- - Год выпуска: 2014
Страна: США
Жанр:Боевик, комедия, криминал
Продолжительность: 01:51:57
Перевод: Профессиональный (полное дублирование) [iTunes]-Режиссер: Фил Лорд, Кристофер Миллер-В ролях: Джона Хилл, Ченнинг Татум, Петер Стормаре, Уайатт Расселл, Эмбер Стивенс, Джиллиан Белл, Айс Кьюб, братья Лукас, Ник Офферман, Джимми Татро-Описание: Офицерам Шмидту и Дженко теперь предстоит работать под прикрытием в местном колледже. Однако когда Дженко встречает родственную душу в футбольной команде, а Шмидт проникает в богемную среду, они начинают сомневаться в их товариществе…- -Качество: WEB-DLRip
Формат: AVI
Видео кодек: XviD
Аудио кодек: AC3
Видео: XviD, 1355 kb/s, 720x304
Аудио: AC3, 384 Kb/s (6 ch)

Media info

General
Complete name : E:\E:\Ma40.i.B0tan.2014.D.WEBDLRip.1400Mb_.avi
Format : AVI
Format/Info : Audio Video Interleave
File size : 1.37 GiB
Duration : 1h 51mn
Overall bit rate : 1 748 Kbps
Writing application : VirtualDubMod 1.5.10.2 (build 2540/release)
Writing library : VirtualDub-MPEG2 build 24586/release
Video
ID : 0
Format : MPEG-4 Visual
Format profile : Advanced [email protected]
Format settings, BVOP : Yes
Format settings, QPel : No
Format settings, GMC : No warppoints
Format settings, Matrix : Default (MPEG)
Codec ID : XVID
Codec ID/Hint : XviD
Duration : 1h 51mn
Bit rate : 1 355 Kbps
Width : 720 pixels
Height : 304 pixels
Display aspect ratio : 2.35:1
Frame rate : 23.976 fps
Color space : YUV
Chroma subsampling : 4:2:0
Bit depth : 8 bits
Scan type : Progressive
Compression mode : Lossy
Bits/(Pixel*Frame) : 0.258
Stream size : 1.06 GiB (78%)
Writing library : XviD 1.2.1 (UTC 2008-12-04)
Audio
ID : 1
Format : AC-3
Format/Info : Audio Coding 3
Mode extension : CM (complete main)
Format settings, Endianness : Big
Codec ID : 2000
Duration : 1h 51mn
Bit rate mode : Constant
Bit rate : 384 Kbps
Channel count : 6 channels
Channel positions : Front: L C R, Side: L R, LFE
Sampling rate : 48.0 KHz
Bit depth : 16 bits
Compression mode : Lossy
Stream size : 308 MiB (22%)
Alignment : Aligned on interleaves
Interleave, duration : 42 ms (1.00 video frame)
Interleave, preload duration : 512 ms

Скриншоты



Последний раз редактировалось: Suxrob89 (2014-10-07 08:49), всего редактировалось 3 раз(а)

Создавать темы 28-Июл-2014 01:14

[Профиль]  [ЛС] 

Страх

Стаж: 4 года

Сообщений: 1131

Симпатии: 448

дождались..

Создавать темы 28-Июл-2014 01:52

[Профиль]  [ЛС] 

SNation

Стаж: 4 года 6 месяцев

Сообщений: 81

Симпатии: 70

Фильм хороший.
Я одного не понимаю зачем релизить если у вас отдача 15 кб/с?
Размер: 1.37 GB | Зарегистрирован: 6 часов | Скачан: 0 раз
Сидов:
Пользователь ULR Отдано Скачано Отдача Загрузка
Suxrob89 ® 0.1 121 MB - 13 KB/s -
Личеров:
Пользователь % Отдано Скачано Отдача Загрузка
sergey25 4 69 MB 58 MB 65 KB/s 48 KB/s
Lakec 6 51 MB 96 MB 30 KB/s 13 KB/s
Marat1976 2 7 MB 26 MB 1 KB/s 3 KB/s
axxa 0 - 2 MB - -
Leyto 0 4 MB 2 MB - -
an4ik 0 - - - -
refantom 0 - 2 MB - -
javohir_2011 0 4 MB 2 MB - -
показаны данные только за текущую сессию
Ведь вы раздаёте 1 релиз 1-2 дня (если кто нибудь вам не поможет, может быть быстрее)

Создавать темы 28-Июл-2014 07:28

[Профиль]  [ЛС] 

Android

Стаж: 4 года

Сообщений: 73

Симпатии: 11

Сухроб, какой провайдер у тебя?

_________________
Подпись отключена за нарушение правил форума

Создавать темы 28-Июл-2014 09:40

[Профиль]  [ЛС] 

azik-1993

Стаж: 4 года 8 месяцев

Сообщений: 155

Симпатии: 23

Suxrob89, помогу с раздачей

Создавать темы 28-Июл-2014 09:43

[Профиль]  [ЛС] 

Suxrob89 ®

Стаж: 7 лет 2 месяца

Сообщений: 933

Симпатии: 564

Android, Uzonline
SNation, night racer качаю 1 мб/сек с внешки раздаю как могу

Создавать темы 28-Июл-2014 12:01

[Профиль]  [ЛС] 

Artur.samiev

Стаж: 4 года

Сообщений: 4

фыв

Создавать темы 30-Июл-2014 15:04

[Профиль]  [ЛС] 

tas ix

Стаж: 5 лет 8 месяцев

Сообщений: 105

Симпатии: 24

Зато Сухроб одним из первых заливает релизы, за это уже спасибо)) а огда в качестве выйдет никто не знает?

Создавать темы 02-Авг-2014 08:55

[Профиль]  [ЛС] 

Azimaka

Стаж: 5 лет

Сообщений: 40

скорости дайте пжл!

Создавать темы 06-Авг-2014 16:18

[Профиль]  [ЛС] 

Azimaka

Стаж: 5 лет

Сообщений: 40

скорости пожалуйста
3 процента докачать осталось

Создавать темы 09-Авг-2014 01:38

[Профиль]  [ЛС] 

serj777

Стаж: 4 года 3 месяца

Сообщений: 59

Симпатии: 3

блин зря скачал! Когда в качестве будет? И почему в конце звука нет?

Создавать темы 21-Авг-2014 18:18

[Профиль]  [ЛС] 

Cheef_Chaf

Стаж: 5 лет

Сообщений: 11

а когда выйдет в фулл HD?

Создавать темы 30-Авг-2014 20:45

[Профиль]  [ЛС] 

HannibaL

Стаж: 7 лет 2 месяца

Сообщений: 10

дайте скорость плиииз

Создавать темы 18-Сен-2014 23:59

[Профиль]  [ЛС] 

Топик был перенесен из форума CamRip\Telesync\SATRip\TVRip в форум Фильмы за 2014 (новинки)
Suxrob89

Создавать темы 01-Окт-2014 11:53

 

andrewcho

Стаж: 5 лет 1 месяц

Сообщений: 28

867801serj777
так я не понял со звком все в норме или нет???

Создавать темы 02-Окт-2014 14:17

[Профиль]  [ЛС] 
Показать сообщения:    
Ответить на тему

Текущее время: 18-Окт 12:18

Часовой пояс: UTC + 5



Вы не можете начинать темы
Вы не можете отвечать на сообщения
Вы не можете редактировать свои сообщения
Вы не можете удалять свои сообщения
Вы не можете голосовать в опросах
Вы не можете прикреплять файлы к сообщениям
Вы не можете скачивать файлы