Ной / Noah (Даррен Аронофски / Darren Aronofsky) [2014, США, драма, приключения, фэнтези, BDRemux 1080p] Dub [Лицензия]+ Original Eng + Sub rus, eng

Ответить на тему
 

yusuf.0088 ®

Стаж: 3 года 11 месяцев

Сообщений: 116

Симпатии: 69

Ной / Noah«Конец — это только начало»-- Год выпуска: 2014
Страна: США
Жанр: драма, приключения, фэнтези
Продолжительность: 02:17:53--Перевод: Профессиональный (дублированный) [Лицензия]
Оригинальная аудиодорожка: английская
Cубтитры: русские, английские--Режиссер: Даррен Аронофски / Darren Aronofsky--В ролях: Рассел Кроу (Noah), Дженнифер Коннелли (Naameh), Рэй Уинстон (Tubal-cain), Энтони Хопкинс (Methuselah), Эмма Уотсон (Ila), Логан Лерман (Ham), Дуглас Бут (Shem), Ник Нолти (Samyaza), Марк Марголис (Magog), Кевин Дюран (Rameel), Лео МакХью Кэрролл (Japheth), Мартон Чокаш (Lamech)--Описание:
История отца, воина и спасителя Человечества и всего живого на Земле.-- --Качество: BDRemux 1080p
Релиз: Yusuf
Контейнер: MKV
Видео: MPEG-4 AVC / High Profile 4.1 / 1920x1080 / 23.976 fps / 23800 kbps
Аудио 1: Русский / AC3 6ch / 48 KHz / 448 kbps |Дубляж|
Аудио 2: Английский / AC3 6ch / 48 KHz / 448 kbps |Original|
Сохранены оригинальные чартеры как на Blu-Ray

MediaInfo

Формат : Matroska
Версия формата : Version 4 / Version 2
Размер файла : 24,2 Гбайт
Продолжительность : 2 ч. 17 м.
Режим общего битрейта : Переменный
Общий поток : 25,2 Мбит/сек
Название фильма : Noah.2014.BDRemux.1080p.by.Yusuf
Дата кодирования : UTC 2014-07-28 08:17:54
Программа кодирования : mkvmerge v6.0.0 ('Coming Up For Air') built on Jan 20 2013 09:52:00
Библиотека кодирования : libebml v1.3.0 + libmatroska v1.4.0
Видео
Идентификатор : 1
Формат : AVC
Формат/Информация : Advanced Video Codec
Профиль формата : [email protected]
Параметр CABAC формата : Да
Параметр ReFrames формата : 4 кадра
Идентификатор кодека : V_MPEG4/ISO/AVC
Продолжительность : 2 ч. 17 м.
Вид битрейта : Переменный
Битрейт : 23,8 Мбит/сек
Максимальный битрейт : 33,0 Мбит/сек
Ширина : 1920 пикселей
Высота : 1080 пикселей
Соотношение сторон : 16:9
Режим частоты кадров : Постоянный
Частота кадров : 23,976 кадра/сек
Цветовое пространство : YUV
Субдискретизация насыщенности : 4:2:0
Битовая глубина : 8 бит
Тип развёртки : Прогрессивная
Бит/(Пиксели*Кадры) : 0.478
Размер потока : 22,9 Гбайт (94%)
Заголовок : Noah.2014.BDRemux.1080p.by.Yusuf
Default : Да
Forced : Нет
Аудио #1
Идентификатор : 2
Формат : AC-3
Формат/Информация : Audio Coding 3
Расширение режима : CM (complete main)
Параметр Endianness формата : Big
Идентификатор кодека : A_AC3
Продолжительность : 2 ч. 17 м.
Вид битрейта : Постоянный
Битрейт : 448 Кбит/сек
Каналы : 6 каналов
Расположение каналов : Front: L C R, Side: L R, LFE
Частота : 48,0 КГц
Битовая глубина : 16 бит
Метод сжатия : С потерями
Размер потока : 442 Мбайт (2%)
Язык : Russian
Default : Да
Forced : Нет
Аудио #2
Идентификатор : 3
Формат : AC-3
Формат/Информация : Audio Coding 3
Расширение режима : CM (complete main)
Параметр Endianness формата : Big
Идентификатор кодека : A_AC3
Продолжительность : 2 ч. 17 м.
Вид битрейта : Постоянный
Битрейт : 448 Кбит/сек
Каналы : 6 каналов
Расположение каналов : Front: L C R, Side: L R, LFE
Частота : 48,0 КГц
Битовая глубина : 16 бит
Метод сжатия : С потерями
Размер потока : 442 Мбайт (2%)
Язык : English
Default : Нет
Forced : Нет
Текст #1
Идентификатор : 4
Формат : UTF-8
Идентификатор кодека : S_TEXT/UTF8
Идентификатор кодека/Информация : UTF-8 Plain Text
Язык : Russian
Default : Нет
Forced : Нет
Текст #2
Идентификатор : 5
Формат : UTF-8
Идентификатор кодека : S_TEXT/UTF8
Идентификатор кодека/Информация : UTF-8 Plain Text
Язык : English
Default : Нет
Forced : Нет
Меню
00:00:00.000 : :Chapter 01
00:04:48.955 : :Chapter 02
00:08:37.266 : :Chapter 03
00:12:23.033 : :Chapter 04
00:18:43.080 : :Chapter 05
00:23:25.487 : :Chapter 06
00:32:06.424 : :Chapter 07
00:37:27.203 : :Chapter 08
00:42:50.734 : :Chapter 09
00:54:35.647 : :Chapter 10
01:01:14.962 : :Chapter 11
01:03:28.596 : :Chapter 12
01:09:33.794 : :Chapter 13
01:19:18.336 : :Chapter 14
01:21:56.536 : :Chapter 15
01:29:12.347 : :Chapter 16
01:34:02.053 : :Chapter 17
01:40:27.354 : :Chapter 18
01:49:23.098 : :Chapter 19
01:55:57.825 : :Chapter 20
02:00:37.230 : :Chapter 21
02:11:32.676 : :Chapter 22
02:17:52.889 : :Chapter 23

Скриншоты

Создавать темы 28-Июл-2014 14:36

[Профиль]  [ЛС] 

BMW077

Стаж: 4 года 11 месяцев

Сообщений: 1

раздачу дайте

Создавать темы 16-Янв-2015 18:40

[Профиль]  [ЛС] 
Показать сообщения:    
Ответить на тему

Текущее время: 23-Сен 01:48

Часовой пояс: UTC + 5



Вы не можете начинать темы
Вы не можете отвечать на сообщения
Вы не можете редактировать свои сообщения
Вы не можете удалять свои сообщения
Вы не можете голосовать в опросах
Вы не можете прикреплять файлы к сообщениям
Вы не можете скачивать файлы