Непобедимый / Invincible (Вернер Херцог) [2001 г., драма, военный, ..., DVDRip]

Ответить на тему
 

igor1968 ®

Стаж: 5 лет 6 месяцев

Сообщений: 366

Симпатии: 197

Непобедимый / Invincible «Он стал сенсацией знаменитого шоу и был убежден, что избран Богом, чтобы спасти свой народ» Год выпуска: 2001
Страна:
Жанр: драма, военный, ...
Продолжительность: 02:12:45.839
Перевод: Профессиональный (многоголосый, закадровый)
Режиссер: Вернер Херцог

В ролях: Тим Рот
Юко Ахола
Анна Гурари
Макс Раабе
Джейкоб Вейн
Густав-Петер Вёлер
Удо Кир
Херберт Голдер
Гари Барт
Ренате Крёсснер
...

В 1932 году немецкое агентство по поиску талантов отыскало в Восточной Польше человека невероятной физической силы — молодого еврейского кузнеца Цише Брайтбарта. Его приглашают выступать в шоу, которое возглавляет личный предсказатель Гитлера, знаменитый иллюзионист Хануссен, мечтающий учредить всемогущее Министерство оккультных наук.
Изображая «истинного арийца Зигфрида», подаваемый в программках как «самый сильный человек на земле», Цише становится сенсацией в Берлине периода Веймарской республики. Но до прихода Гитлера к власти остается всего несколько месяцев… Он стал сенсацией знаменитого шоу и был убежден, что избран Богом, чтобы спасти свой народ.- -Качество: DVDRip
Формат: AVI
Видео кодек: XviD
Аудио кодек: AC3
Видео: 720x400 (1.80:1), 25 fps, XviD MPEG-4 ~1824 kbps avg, 0.25 bit/pixel
Аудио: 48 kHz, AC3 Dolby Digital, 3/2 (L,C,R,l,r) + LFE ch, ~384.00 kbps avg-

MediaInfo

General
Complete name : Nepobedimiy.2001.P.DVDRip.wowa63.avi
Format : AVI
Format/Info : Audio Video Interleave
Format profile : OpenDML
File size : 2.05 GiB
Duration : 2h 12mn
Overall bit rate : 2 215 Kbps
Writing application : VirtualDubMod 1.5.4.1 (build 2178/release)
Writing library : VirtualDubMod build 2178/release
Video
ID : 0
Format : MPEG-4 Visual
Format profile : Advanced [email protected]
Format settings, BVOP : Yes
Format settings, QPel : No
Format settings, GMC : No warppoints
Format settings, Matrix : Custom
Codec ID : XVID
Codec ID/Hint : XviD
Duration : 2h 12mn
Bit rate : 1 822 Kbps
Width : 720 pixels
Height : 400 pixels
Display aspect ratio : 16:9
Frame rate : 25.000 fps
Color space : YUV
Chroma subsampling : 4:2:0
Bit depth : 8 bits
Scan type : Progressive
Compression mode : Lossy
Bits/(Pixel*Frame) : 0.253
Stream size : 1.69 GiB (82%)
Writing library : XviD 63
Audio
ID : 1
Format : AC-3
Format/Info : Audio Coding 3
Mode extension : CM (complete main)
Format settings, Endianness : Big
Codec ID : 2000
Duration : 2h 12mn
Bit rate mode : Constant
Bit rate : 384 Kbps
Channel(s) : 6 channels
Channel positions : Front: L C R, Side: L R, LFE
Sampling rate : 48.0 KHz
Bit depth : 16 bits
Compression mode : Lossy
Stream size : 365 MiB (17%)
Alignment : Split accross interleaves
Interleave, duration : 96 ms (2.40 video frames)
Interleave, preload duration : 96 ms
Language : Russian
- - -

Создавать темы 30-Июл-2014 20:00

[Профиль]  [ЛС] 

SpAcE

Стаж: 7 лет 1 месяц

Сообщений: 60

что то не очень Поддубный и тот поинтересней получился

Создавать темы 28-Окт-2014 00:58

[Профиль]  [ЛС] 
Показать сообщения:    
Ответить на тему

Текущее время: 20-Сен 03:29

Часовой пояс: UTC + 5



Вы не можете начинать темы
Вы не можете отвечать на сообщения
Вы не можете редактировать свои сообщения
Вы не можете удалять свои сообщения
Вы не можете голосовать в опросах
Вы не можете прикреплять файлы к сообщениям
Вы не можете скачивать файлы