Звонок 2 / The Ring Two (Хидео Наката/Hideo Nakata) [2005 г., Ужасы, триллер, драма, детектив, DVDRip]

Ответить на тему
 

Чингиз ®

Стаж: 5 лет 9 месяцев

Сообщений: 37

Симпатии: 20

Звонок 2 / The Ring Two
Год выпуска: 2005
Страна: США
Жанр: Ужасы, триллер, драма, детектив
Продолжительность: 01:44:56
Перевод: Профессиональный (полное дублирование)
Режиссер: Хидео Наката/Hideo Nakata/
В ролях: Наоми Уоттс, Саймон Бейкер, Дэвид Дорфман, Элизабет Перкинс, Гэри Коул, Сисси Спейсек, Райан Мерриман, Келли Овертон, Эмили ВанКэмп, Джеймс Лежер
Описание: Прошло полгода после трагических событий в Сиэтле, когда журналистке Рэчел Келлер чудом удалось спастись от смертоносного призрака девочки Самары. Чтобы спрятаться от пугающих воспоминаний и начать новую жизнь, Рэйчел с сыном переезжают в небольшой прибрежный городок Астория, штат Орегон. Но все надежды рушатся, когда в городе погибает подросток, а на месте преступления находят неподписанную видеокассету. Рэйчел понимает, что мстительная Самара вернулась, чтобы продолжить свою безжалостную игру в смерть...
Доп. информация: Рейтинг на IMDB: 5.10 (25 635)
Доп. информация: Режиссером картины изначально был назначен Ноам Мурро, но был выведен из проекта из-за творческих разногласий с руководством DreamWorks.
Во второй части этой бесконечной, как мне видится, леденящей душу эпопеи, все та же маленькая гарпия наводит ужас на любопытствующих граждан, которым довелось узреть то, что лишь кажется видеозаписью.
Качество: DVDRip
Формат: AVI
Видео кодек: XviD
Аудио кодек: AC3
Видео: 688x368 (1.87:1), 25 fps, XviD MPEG-4 ~1404 kbps avg, 0.22 bit/pixel
Аудио: 48 kHz, AC3 Dolby Digital, 3/2 (L,C,R,l,r) + LFE ch, ~448.00 kbps avg

Техданные

General
Complete name : D:\Kino\Для закачки\Zvonok_2_2005_DVDRip_[tfile.ru].avi
Format : AVI
Format/Info : Audio Video Interleave
File size : 1.36 GiB
Duration : 1h 44mn
Overall bit rate : 1 862 Kbps
Writing application : FairUse Wizard - http://fairusewizard.com
Comment : Uploadet for DIRVideo.com
Video
ID : 0
Format : MPEG-4 Visual
Format profile : Advanced [email protected]
Format settings, BVOP : 1
Format settings, QPel : No
Format settings, GMC : No warppoints
Format settings, Matrix : Default (H.263)
Muxing mode : Packed bitstream
Codec ID : XVID
Codec ID/Hint : XviD
Duration : 1h 44mn
Bit rate : 1 405 Kbps
Width : 688 pixels
Height : 368 pixels
Display aspect ratio : 1.870
Frame rate : 25.000 fps
Color space : YUV
Chroma subsampling : 4:2:0
Bit depth : 8 bits
Scan type : Progressive
Compression mode : Lossy
Bits/(Pixel*Frame) : 0.222
Stream size : 1.03 GiB (75%)
Writing library : XviD 1.1.0 (UTC 2005-11-22)
Audio
ID : 1
Format : AC-3
Format/Info : Audio Coding 3
Mode extension : CM (complete main)
Codec ID : 2000
Duration : 1h 44mn
Bit rate mode : Constant
Bit rate : 448 Kbps
Channel(s) : 6 channels
Channel positions : Front: L C R, Side: L R, LFE
Sampling rate : 48.0 KHz
Bit depth : 16 bits
Compression mode : Lossy
Stream size : 336 MiB (24%)
Alignment : Split accross interleaves
Interleave, duration : 40 ms (1.00 video frame)
Interleave, preload duration : 500 ms

Скриншоты

Создавать темы 31-Июл-2014 08:39

[Профиль]  [ЛС] 
Показать сообщения:    
Ответить на тему

Текущее время: 18-Ноя 09:50

Часовой пояс: UTC + 5



Вы не можете начинать темы
Вы не можете отвечать на сообщения
Вы не можете редактировать свои сообщения
Вы не можете удалять свои сообщения
Вы не можете голосовать в опросах
Вы не можете прикреплять файлы к сообщениям
Вы не можете скачивать файлы