Исаак Ньютон: Последний из магов / BBC - Isaac Newton: The Last Magician (Ренни Бартлет / Renny Bartlett) [2013, документальный, биография, история, HDTVRip]

Ответить на тему
 

Zab ®

Стаж: 6 лет 7 месяцев

Сообщений: 476

Симпатии: 424

Исаак Ньютон: Последний из магов / Isaac Newton: The Last Magician- -Год выпуска: 2013
Страна: Великобритания
Студия: BBC
Жанр: документальный, биография, история
Продолжительность: 00:49:01
Перевод: Профессиональный (двухголосый закадровый)
Режиссер: Ренни Бартлет / Renny Bartlett-Описание: Многие считают Исаака Ньютона величайшим гением всех времён. При жизни его считали полубогом науки. Ньютон раскрыл саму природу света, что позволило нам изучить Вселенную. Благодаря ему мы можем рассчитывать движение и предсказывать изменения. Он объяснил силу, объясняющую всю Вселенную точной математической формулой - Закон всемирного тяготения. Ньютона почитают как рационального гения, который вывел нас из средневековой тьмы к свету просвещенности. Но Исаак Ньютон был также очень сложным и замкнутым человеком. Самые глубокие мании Ньютона были раскрыты только спустя 200 лет после его смерти. Он увлекался оккультизмом, еретической религией и алхимией.-Качество: HDTVRip
Контейнер: avi
Видео: MPEG-4 Xvid, 720x400 (16:9), 25.000 fps, ~2100 Kbps [V: mpeg4 advanced simple profile, yuv420p, 720x400, 2049 kb/s]
Аудио 1: Russian AC3, 2 ch, 48KHz, 192 Kbps [A: ac3, 48000 Hz, stereo, 192 kb/s]
Аудио 2: English AAC, 2 ch, 48KHz, 160 Kbps [A2: ac3, 48000 Hz, stereo, 192 kb/s]
--

MediaInfo

General
Complete name : D:\[Movies]\Isaak Nyuton. Posledniy iz magov (2013).avi
Format : AVI
Format/Info : Audio Video Interleave
File size : 789 MiB
Duration : 49mn 0s
Overall bit rate : 2 251 Kbps
Movie name : BBC. Isaac Newton: The Last Magician
Director : SATRip by Thunder
Writing application : VirtualDubMod 1.5.10.3 | www.virtualdub-fr.org || (build 2550/release)
Original source form/Name : Documentary
Video
ID : 0
Format : MPEG-4 Visual
Format profile : Advanced [email protected]
Format settings, BVOP : 2
Format settings, QPel : No
Format settings, GMC : No warppoints
Format settings, Matrix : Default (H.263)
Codec ID : XVID
Codec ID/Hint : XviD
Duration : 49mn 0s
Bit rate : 2 050 Kbps
Width : 720 pixels
Height : 400 pixels
Display aspect ratio : 16:9
Frame rate : 25.000 fps
Color space : YUV
Chroma subsampling : 4:2:0
Bit depth : 8 bits
Scan type : Progressive
Compression mode : Lossy
Bits/(Pixel*Frame) : 0.285
Stream size : 719 MiB (91%)
Writing library : XviD 1.2.1 (UTC 2008-12-04)
Audio
ID : 1
Format : AC-3
Format/Info : Audio Coding 3
Mode extension : CM (complete main)
Format settings, Endianness : Big
Codec ID : 2000
Duration : 49mn 0s
Bit rate mode : Constant
Bit rate : 192 Kbps
Channel(s) : 2 channels
Channel positions : Front: L R
Sampling rate : 48.0 KHz
Bit depth : 16 bits
Compression mode : Lossy
Stream size : 67.3 MiB (9%)
Alignment : Split accross interleaves
Interleave, duration : 40 ms (1.00 video frame)
Interleave, preload duration : 500 ms
--

Скриншоты




--

Создавать темы 31-Июл-2014 16:55

[Профиль]  [ЛС] 
Показать сообщения:    
Ответить на тему

Текущее время: 15-Дек 09:42

Часовой пояс: UTC + 5



Вы не можете начинать темы
Вы не можете отвечать на сообщения
Вы не можете редактировать свои сообщения
Вы не можете удалять свои сообщения
Вы не можете голосовать в опросах
Вы не можете прикреплять файлы к сообщениям
Вы не можете скачивать файлы