Очарован тобой / Мафтунингман (Юлдаш Агзамов) [1958 г., комедия, музыка, DVDRip-AVC]

Ответить на тему
 

Gen-X ®

Стаж: 4 года 7 месяцев

Сообщений: 125

Симпатии: 56

Очарован тобой / Мафтунингман
Год выпуска: 1958
Страна: СССР
Студия: Узбекфильм
Жанр: Комедия, Музыка
Продолжительность: 1:15:24
Перевод: Профессиональный (полное дублирование)-Режиссер: Юлдаш Агзамов
Сценарий: Тураб Тула
Оператор: Михаил Краснянский
Композиторы: Икрам Акбаров, Муталь Бурханов, Манас Левиев
Художники: Варшам Еремян, Валентин Синиченко-В ролях: Клара Джалилова, Гани Агзамов, Тургун Азизов, Аббас Бакиров, Санат Диванов, Наби Рахимов, Раззак Хамраев, Рано Хамрокулова, Саиб Ходжаев, Марьям Якубова, Джура Таджиев, М. Миракилов-Описание: Идет подбор актеров на главные роли нового музыкального фильма. С этой целью режиссер Абзалов со своим помощником выезжают в Самарканд, Бухару, Хорезм и другие области, ищут молодых талантов…
Зритель волею создателей фильма оказывается в кругу любителей искусств и самодеятельности. Неприхотливый сюжет нужен авторам, чтобы показать расцвет народной музыкальной культуры. Красиво снятая нарядная лента, наполненная музыкой и песнями.- -Качество: DVDRip-AVC
Формат: MKV
Видео кодек: V_MPEG4
Аудио кодек: AC3
Видео: 714x400 pixels, 16:9, 25.000 fps, 2 350 Kbps
Аудио №1: Русский, 192 Kbps, 48.0 KHz, 2.0 channels
Аудио №2: Узбекский, 192 Kbps, 48.0 KHz, 2.0 channels-

Доп. информация

Фильм не ремастирован. За основу взята общесоюзная дублированная прокатная версия (титры на русском яз.), присутствует также узбекская звуковая дорожка. Время от времени в левом верхнем углу появляется полупрозрачный логотип изготовителя диска (Cinema). Диск выпущен в 2008 году. Шёл в качестве приложения к узбекскому журналу о кино CINEMA, что объясняет наличие логотипа в кадре.
Премьера (мир): 14 февраля 1959

Медиа инфо

Video
ID : 1
Format : AVC
Format/Info : Advanced Video Codec
Format profile : [email protected]
Format settings, CABAC : Yes
Format settings, ReFrames : 2 frames
Codec ID : V_MPEG4/ISO/AVC
Duration : 1h 15mn
Bit rate : 2 350 Kbps
Width : 714 pixels
Height : 400 pixels
Display aspect ratio : 16:9
Frame rate mode : Constant
Frame rate : 25.000 fps
Color space : YUV
Chroma subsampling : 4:2:0
Bit depth : 8 bits
Scan type : Progressive
Bits/(Pixel*Frame) : 0.329
Stream size : 1.24 GiB (84%)
Writing library : x264 core
Default : Yes
Forced : No
Color primaries : BT.601 NTSC
Transfer characteristics : BT.709
Matrix coefficients : BT.601
Audio #1
ID : 2
Format : AC-3
Format/Info : Audio Coding 3
Mode extension : CM (complete main)
Format settings, Endianness : Big
Codec ID : A_AC3
Duration : 1h 15mn
Bit rate mode : Constant
Bit rate : 192 Kbps
Channel(s) : 2 channels
Channel positions : Front: L R
Sampling rate : 48.0 KHz
Bit depth : 16 bits
Compression mode : Lossy
Stream size : 104 MiB (7%)
Title : AC-3 2.0-Ch
Language : Uzbek
Default : Yes
Forced : No
Audio #2
ID : 3
Format : AC-3
Format/Info : Audio Coding 3
Mode extension : CM (complete main)
Format settings, Endianness : Big
Codec ID : A_AC3
Duration : 1h 15mn
Bit rate mode : Constant
Bit rate : 192 Kbps
Channel(s) : 2 channels
Channel positions : Front: L R
Sampling rate : 48.0 KHz
Bit depth : 16 bits
Compression mode : Lossy
Stream size : 104 MiB (7%)
Title : AC-3 2.0-Ch
Language : Russian
Default : No
Forced : No

Скриншоты












-

Создавать темы 31-Июл-2014 19:59

[Профиль]  [ЛС] 

Schizos

Стаж: 3 года 7 месяцев

Сообщений: 80

Симпатии: 16

Родители будут рады

Создавать темы 31-Июл-2014 20:30

[Профиль]  [ЛС] 

Bahtier

Стаж: 7 лет

Сообщений: 52

Симпатии: 2

я сам очень рад

Создавать темы 31-Июл-2014 21:53

[Профиль]  [ЛС] 

Bekоff

Стаж: 6 лет 6 месяцев

Сообщений: 148

Симпатии: 8

Отличное кино!

Создавать темы 02-Авг-2014 21:44

[Профиль]  [ЛС] 
Показать сообщения:    
Ответить на тему

Текущее время: 18-Авг 10:01

Часовой пояс: UTC + 5



Вы не можете начинать темы
Вы не можете отвечать на сообщения
Вы не можете редактировать свои сообщения
Вы не можете удалять свои сообщения
Вы не можете голосовать в опросах
Вы не можете прикреплять файлы к сообщениям
Вы не можете скачивать файлы