Убить короля / To Kill a King (Майк Баркер) [2003 г., драма, военный, биография, история, ..., BDRip]

Ответить на тему
 

igor1968 ®

Стаж: 5 лет 6 месяцев

Сообщений: 366

Симпатии: 197

Убить короля / To Kill a King«Там, где есть предатель, найдется и герой» Год выпуска: 2003
Страна:
Жанр: драма, военный, биография, история, ...
Продолжительность: 01:42:19.101
Перевод: Профессиональный (многоголосый, закадровый)
Режиссер: Майк Баркер

В ролях: Тим Рот
Дюгрей Скотт
Оливия Уильямс
Джеймс Болэм
Корин Редгрейв
Финбар Линч
Джулиан Райнд-Татт
Эдриан Скарборо
Джереми Свифт
Руперт Эверетт
...

Англия, 1645 год. Близится к концу кровопролитная Гражданская война. Одержав победу над войсками тирана Карла I, великие полководцы Фейрфакс и Кромвель намерены восстановить из пепла разрушенную страну и вернуть народу долгожданный мир. Но когда стихает грохот пушек, за дело берется политика, вбивая клин отчуждения между верными друзьями.
Решительный лорд Кромвель хочет казнить короля, но дипломатичный Томас Фейрфакс, над которым довлеет его властная жена-монархистка, предпочитает сделку с парламентом. Не рассчитывая на помощь Фейрфакса, Кромвель решает в одиночку вершить судьбу своего государства…- -Качество: BDRip
Формат: AVI
Видео кодек: XviD
Аудио кодек: AC3
Видео: 720x304 (2.37:1), 23.976 fps, XviD build 50 ~1585 kbps avg, 0.30 bit/pixel
Аудио: 48 kHz, AC3 Dolby Digital, 3/2 (L,C,R,l,r) + LFE ch, ~448.00 kbps avg-

MediaInfo

General
Complete name : Ubit.korolya.2003.XviD.BDRip.ExKinoRay.avi
Format : AVI
Format/Info : Audio Video Interleave
File size : 1.46 GiB
Duration : 1h 42mn
Overall bit rate : 2 043 Kbps
Writing application : VirtualDubMod 1.5.10.2 (build 2540/release)
Writing library : VirtualDubMod build 2540/release
Video
ID : 0
Format : MPEG-4 Visual
Format profile : Advanced [email protected]
Format settings, BVOP : Yes
Format settings, QPel : No
Format settings, GMC : No warppoints
Format settings, Matrix : Default (MPEG)
Codec ID : XVID
Codec ID/Hint : XviD
Duration : 1h 42mn
Bit rate : 1 586 Kbps
Width : 720 pixels
Height : 304 pixels
Display aspect ratio : 2.35:1
Frame rate : 23.976 fps
Color space : YUV
Chroma subsampling : 4:2:0
Bit depth : 8 bits
Scan type : Progressive
Compression mode : Lossy
Bits/(Pixel*Frame) : 0.302
Stream size : 1.13 GiB (78%)
Writing library : XviD 1.2.1 (UTC 2008-12-04)
Audio
ID : 1
Format : AC-3
Format/Info : Audio Coding 3
Mode extension : CM (complete main)
Format settings, Endianness : Big
Codec ID : 2000
Duration : 1h 42mn
Bit rate mode : Constant
Bit rate : 448 Kbps
Channel(s) : 6 channels
Channel positions : Front: L C R, Side: L R, LFE
Sampling rate : 48.0 KHz
Bit depth : 16 bits
Compression mode : Lossy
Stream size : 328 MiB (22%)
Alignment : Split accross interleaves
Interleave, duration : 42 ms (1.00 video frame)
Interleave, preload duration : 500 ms
- - - -

Создавать темы 01-Авг-2014 12:10

[Профиль]  [ЛС] 
Показать сообщения:    
Ответить на тему

Текущее время: 21-Сен 13:40

Часовой пояс: UTC + 5



Вы не можете начинать темы
Вы не можете отвечать на сообщения
Вы не можете редактировать свои сообщения
Вы не можете удалять свои сообщения
Вы не можете голосовать в опросах
Вы не можете прикреплять файлы к сообщениям
Вы не можете скачивать файлы