Красивые существа / Beautiful Creatures (Билл Иглз) [2000 г., Триллер, Драма, Комедия, Криминал, BDRip-AVC] MVO [R5+OPT] ENG SUB [RUS+ENG]

Ответить на тему
 

SNation ®

Стаж: 4 года 8 месяцев

Сообщений: 81

Симпатии: 70

Красивые существа / Beautiful Creatures- Год выпуска: 2000
Страна: Великобритания
Жанр: Триллер, Драма, Комедия, Криминал
Продолжительность: 01:27:04
Перевод: Профессиональный (многоголосый, закадровый) R5 / ОРТ / ENG-Режиссер: Билл Иглз-В ролях:Сьюзэн Линч, Айэйн Глен, Джейк Д’Арси, Рейчел Вайс, Том Мэннион, Морис Роевз, Пол Дунэн, Робин Лэйн, Полин Линч, Джон Мурта
Описание:Когда Петула и Дороти встретились, их тошнило от своих парней. И это не было похоже на большое и светлое чувство. Так что, когда с Тони было покончено, Дороти вздохнула с облегчением. Избавиться от Брайена оказалось сложнее и даже пришлось в спешке заметать следы.
А когда ситуация совсем вышла из-под контроля, подруги с ужасом понимают, что мертвые способны доставить не меньше хлопот, чем живые. А ход событий не позволит им остановиться на достигнутом.- -Качество: BDRip-AVC
Формат: AVC
Видео: 1024x576, 2 340 Kbps, 23,976 fps
Аудио #1 AC-3, 48.0 KHz, 448 Kbps, 6 channels Russian Профессиональный (многоголосый, закадровый) R5
Аудио #2 AC-3, 48.0 KHz, 384 Kbps, 6 channels Russian Профессиональный (многоголосый, закадровый) ОРТ
Аудио #3 AC-3, 48.0 KHz, 384 Kbps, 6 channels English Оригинальный
Субтитры:Russian / English

MI

General
Unique ID                                : 247089726761236511941910829681303425277 (0xB9E3C01860FFDA57AB71507434ED10FD)
Complete name                            : D:\Красивые существа.mkv
Format                                   : Matroska
Format version                           : Version 1
File size                                : 2.18 GiB
Duration                                 : 1h 27mn
Overall bit rate                         : 3 557 Kbps
Movie name                               : (2000) Прекрасные создания - релиз подготовил -SNation- для tas-ix.net
Encoded date                             : UTC 2010-06-03 04:21:13
Writing application                      : mkvmerge v2.4.0 ('Fumbling Towards Ecstasy') built on Aug 1.08.2014 17.05.08
Writing library                          : libebml v0.7.7 + libmatroska v0.8.1
Video
ID                                       : 1
Format                                   : AVC
Format/Info                              : Advanced Video Codec
Format profile                           : [email protected]
Format settings, CABAC                   : Yes
Format settings, ReFrames                : 6 frames
Codec ID                                 : V_MPEG4/ISO/AVC
Duration                                 : 1h 27mn
Bit rate                                 : 2 340 Kbps
Width                                    : 1 024 pixels
Height                                   : 576 pixels
Display aspect ratio                     : 16:9
Frame rate                               : 23.976 fps
Color space                              : YUV
Chroma subsampling                       : 4:2:0
Bit depth                                : 8 bits
Scan type                                : Progressive
Bits/(Pixel*Frame)                       : 0.165
Stream size                              : 1.39 GiB (64%)
Title                                    : (2000) Прекрасные создания - релиз подготовил -Джон Коннор- для rutracker.org
Writing library                          : x264 core 79
Encoding settings                        : cabac=1 / ref=6 / deblock=1:-2:-1 / analyse=0x3:0x113 / me=umh / subme=9 / psy=1 / psy_rd=1.0:0.0 / mixed_ref=0 / me_range=24 / chroma_me=1 / trellis=2 / 8x8dct=1 / cqm=0 / deadzone=21,11 / chroma_qp_offset=-2 / threads=1 / nr=0 / decimate=1 / mbaff=0 / constrained_intra=0 / bframes=6 / b_pyramid=0 / b_adapt=2 / b_bias=0 / direct=1 / wpredb=1 / wpredp=2 / keyint=240 / keyint_min=24 / scenecut=40 / rc_lookahead=40 / rc=2pass / mbtree=1 / bitrate=2340 / ratetol=1.0 / qcomp=0.60 / qpmin=10 / qpmax=51 / qpstep=4 / cplxblur=20.0 / qblur=0.5 / ip_ratio=1.40 / aq=1:1.00
Language                                 : Russian
Default                                  : Yes
Forced                                   : No
Color primaries                          : BT.709-5, BT.1361, IEC 61966-2-4, SMPTE RP177
Transfer characteristics                 : BT.709-5, BT.1361
Matrix coefficients                      : BT.709-5, BT.1361, IEC 61966-2-4 709, SMPTE RP177
Audio #1
ID                                       : 2
Format                                   : AC-3
Format/Info                              : Audio Coding 3
Mode extension                           : CM (complete main)
Format settings, Endianness              : Big
Codec ID                                 : A_AC3
Duration                                 : 1h 27mn
Bit rate mode                            : Constant
Bit rate                                 : 448 Kbps
Channel(s)                               : 6 channels
Channel positions                        : Front: L C R, Side: L R, LFE
Sampling rate                            : 48.0 KHz
Bit depth                                : 16 bits
Compression mode                         : Lossy
Stream size                              : 282 MiB (13%)
Title                                    : Профессиональный (многоголосый, закадровый) R5
Language                                 : Russian
Default                                  : Yes
Forced                                   : No
Audio #2
ID                                       : 3
Format                                   : AC-3
Format/Info                              : Audio Coding 3
Mode extension                           : CM (complete main)
Format settings, Endianness              : Big
Codec ID                                 : A_AC3
Duration                                 : 1h 27mn
Bit rate mode                            : Constant
Bit rate                                 : 384 Kbps
Channel(s)                               : 6 channels
Channel positions                        : Front: L C R, Side: L R, LFE
Sampling rate                            : 48.0 KHz
Bit depth                                : 16 bits
Compression mode                         : Lossy
Stream size                              : 242 MiB (11%)
Title                                    : Профессиональный (многоголосый, закадровый) ОРТ
Language                                 : Russian
Default                                  : No
Forced                                   : No
Audio #3
ID                                       : 4
Format                                   : AC-3
Format/Info                              : Audio Coding 3
Mode extension                           : CM (complete main)
Format settings, Endianness              : Big
Codec ID                                 : A_AC3
Duration                                 : 1h 27mn
Bit rate mode                            : Constant
Bit rate                                 : 384 Kbps
Channel(s)                               : 6 channels
Channel positions                        : Front: L C R, Side: L R, LFE
Sampling rate                            : 48.0 KHz
Bit depth                                : 16 bits
Compression mode                         : Lossy
Stream size                              : 242 MiB (11%)
Title                                    : Оригинальный
Language                                 : English
Default                                  : No
Forced                                   : No
Text #1
ID                                       : 5
Format                                   : UTF-8
Codec ID                                 : S_TEXT/UTF8
Codec ID/Info                            : UTF-8 Plain Text
Title                                    : Русские
Language                                 : Russian
Default                                  : Yes
Forced                                   : No
Text #2
ID                                       : 6
Format                                   : UTF-8
Codec ID                                 : S_TEXT/UTF8
Codec ID/Info                            : UTF-8 Plain Text
Title                                    : Оригинальные
Language                                 : English
Default                                  : No
Forced                                   : No

Скриншоты



Создавать темы 01-Авг-2014 16:58

[Профиль]  [ЛС] 
Показать сообщения:    
Ответить на тему

Текущее время: 11-Дек 12:37

Часовой пояс: UTC + 5



Вы не можете начинать темы
Вы не можете отвечать на сообщения
Вы не можете редактировать свои сообщения
Вы не можете удалять свои сообщения
Вы не можете голосовать в опросах
Вы не можете прикреплять файлы к сообщениям
Вы не можете скачивать файлы