Последний легион / The Last Legion (Даг Лефлер) [2007 г., Фэнтези, Боевик, Приключения, Военный, BDRip-AVC] DUB + ENG

Ответить на тему
 

SNation ®

Стаж: 4 года 8 месяцев

Сообщений: 81

Симпатии: 70

Последний легион / The Last Legion- Год выпуска: 2007
Страна: Великобритания, Италия, Франция, Тунис
Жанр: Фэнтези, Боевик, Приключения, Военный
Продолжительность: 01:41:20
Перевод: Профессиональный (полное дублирование)
Режиссер: Даг Лефлер
В ролях: Колин Фёрт, Бен Кингсли, Айшвария Рай, Питер Муллан, Кевин МакКидд, Джон Ханна, Айэйн Глен, Томас Сэнгстер, Руперт Френд, Нонсо Анози
Описание: 476 год нашей эры. Римская империя в агонии… Династия Цезарей повержена… Последнего императора, 12-летнего Ромулуса Августуса, правившего страной всего один день, варвары заключают в темницу на острове Капри.
Однако с помощью своего учителя и легионера Августус совершает побег и отправляется в рискованное путешествие к берегам Британии, чтобы возглавить Девятый легион, единственный сохранивший верность Риму. Последний легион… Августус должен спасти страну, вернуть власть, восстановить династию. Кому соблаговолит Небо в решающей битве?..- -Качество: BDRip-AVC
Формат: AVC
Видео: 2 099 Kbps, 1 024 x 426, 23.976 fps
Аудио #1: 48.0 KHz, AC-3, 448 Kbps, 6 channels Russian DUB
Аудио #2: 48.0 KHz, AC-3, 448 Kbps, 6 channels English Original

MI

General
Unique ID                                : 253533668499174360929196547053305795385 (0xBEBCCEF3C7BB4DF7A23274D116D51339)
Complete name                            : D:\Последний легион.mkv
Format                                   : Matroska
Format version                           : Version 2
File size                                : 2.13 GiB
Duration                                 : 1h 41mn
Overall bit rate                         : 2 995 Kbps
Movie name                               : Poslednii.Legion.2007.x264.BDRip.(AVC).ExKinoRay
Encoded date                             : UTC 2013-01-21 09:47:09
Writing application                      : mkvmerge v4.0.0 ('The Stars were mine') сборка от Jul  1 2014 16:18:42
Writing library                          : libebml v1.0.0 + libmatroska v1.0.0
Video
ID                                       : 1
Format                                   : AVC
Format/Info                              : Advanced Video Codec
Format profile                           : [email protected]
Format settings, CABAC                   : Yes
Format settings, ReFrames                : 8 frames
Codec ID                                 : V_MPEG4/ISO/AVC
Duration                                 : 1h 41mn
Bit rate                                 : 2 099 Kbps
Width                                    : 1 024 pixels
Height                                   : 426 pixels
Display aspect ratio                     : 2.40:1
Frame rate                               : 23.976 fps
Color space                              : YUV
Chroma subsampling                       : 4:2:0
Bit depth                                : 8 bits
Scan type                                : Progressive
Bits/(Pixel*Frame)                       : 0.201
Stream size                              : 1.45 GiB (68%)
Title                                    : ExKinoRay
Writing library                          : x264 core 129 r2230 1cffe9f
Encoding settings                        : cabac=1 / ref=8 / deblock=1:-2:-2 / analyse=0x3:0x133 / me=umh / subme=11 / psy=1 / psy_rd=1.00:0.00 / mixed_ref=1 / me_range=48 / chroma_me=1 / trellis=2 / 8x8dct=1 / cqm=0 / deadzone=21,11 / fast_pskip=0 / chroma_qp_offset=-2 / threads=3 / lookahead_threads=1 / sliced_threads=0 / nr=0 / decimate=0 / interlaced=0 / bluray_compat=0 / constrained_intra=0 / bframes=8 / b_pyramid=2 / b_adapt=2 / b_bias=0 / direct=3 / weightb=1 / open_gop=0 / weightp=2 / keyint=240 / keyint_min=23 / scenecut=40 / intra_refresh=0 / rc_lookahead=40 / rc=2pass / mbtree=1 / bitrate=2099 / ratetol=1.0 / qcomp=0.60 / qpmin=10 / qpmax=51 / qpstep=4 / cplxblur=20.0 / qblur=0.5 / ip_ratio=1.40 / aq=2:1.00
Language                                 : English
Default                                  : No
Forced                                   : No
Audio #1
ID                                       : 2
Format                                   : AC-3
Format/Info                              : Audio Coding 3
Mode extension                           : CM (complete main)
Format settings, Endianness              : Big
Codec ID                                 : A_AC3
Duration                                 : 1h 41mn
Bit rate mode                            : Constant
Bit rate                                 : 448 Kbps
Channel(s)                               : 6 channels
Channel positions                        : Front: L C R, Side: L R, LFE
Sampling rate                            : 48.0 KHz
Bit depth                                : 16 bits
Compression mode                         : Lossy
Stream size                              : 327 MiB (15%)
Language                                 : Russian
Default                                  : Yes
Forced                                   : No
Audio #2
ID                                       : 3
Format                                   : AC-3
Format/Info                              : Audio Coding 3
Mode extension                           : CM (complete main)
Format settings, Endianness              : Big
Codec ID                                 : A_AC3
Duration                                 : 1h 41mn
Bit rate mode                            : Constant
Bit rate                                 : 448 Kbps
Channel(s)                               : 6 channels
Channel positions                        : Front: L C R, Side: L R, LFE
Sampling rate                            : 48.0 KHz
Bit depth                                : 16 bits
Compression mode                         : Lossy
Stream size                              : 327 MiB (15%)
Language                                 : English
Default                                  : No
Forced                                   : No
Menu
00:00:00.000                             : en:Chapter 01
00:09:07.338                             : en:Chapter 02
00:18:07.377                             : en:Chapter 03
00:25:35.825                             : en:Chapter 04
00:34:07.628                             : en:Chapter 05
00:43:32.693                             : en:Chapter 06
00:51:09.399                             : en:Chapter 07
00:58:58.993                             : en:Chapter 08
01:07:46.645                             : en:Chapter 09
01:17:52.042                             : en:Chapter 10
01:24:08.501                             : en:Chapter 11
01:34:00.301                             : en:Chapter 12

Скриншоты




Создавать темы 01-Авг-2014 18:01

[Профиль]  [ЛС] 
Показать сообщения:    
Ответить на тему

Текущее время: 13-Дек 17:47

Часовой пояс: UTC + 5



Вы не можете начинать темы
Вы не можете отвечать на сообщения
Вы не можете редактировать свои сообщения
Вы не можете удалять свои сообщения
Вы не можете голосовать в опросах
Вы не можете прикреплять файлы к сообщениям
Вы не можете скачивать файлы