Кодекс Мафии: Взгляд Изнутри / Inside the Gangsters Code (Ким Флитскроф / Kim Flitskrof) [2013, Документальный, HDTVRip] (1 сезон: 1-5 серии из 5) Discovery

Ответить на тему
 

Zab ®

Стаж: 6 лет 5 месяцев

Сообщений: 476

Симпатии: 424

Кодекс Мафии: Взгляд Изнутри / Inside the Gangsters Code -Год выпуска: 2013
Страна: Великобритания
Производство: Discovery Networks International
Жанр: Документальный
Продолжительность: 5 х ~ 00:43:00
Перевод: Одноголосый закадровый
Доп. инфо о переводе: А. Дасевич
Русские субтитры: нет-Режиссер: Ким Флитскроф / Kim Flitskrof-Описание: Думаете все что показывают в фильмах о бандитах правда? Вы сильно ошибаетесь! В новой документальной передаче - бывший гангстер Лу Ферранте и его уникальный рассказ о том, как устроена мафия...-качество: HDTVRip
формат: AVI
видеокодек: XviD
аудиокодек: AC3
Видео: MPEG-4 Visual, XviD, 704 х 400 (16:9), 25,000 кадров/сек, 903 Кбит/сек, 0.256 бит/пиксель
Аудио: Audio Coding 3, 48,0 КГц, 159 Кбит/сек, 2 канала (Front: L R)

-

Список и краткое описание эпизодов

Эпизод 01 - "18th Street, El Salvador"
Лу присоединяется к гангстерам 18-ой улицы в тюрьме и на воле, чтобы понять, почему их соперничество с МС-13 сеет смерть в Сальвадоре. Может ли кто-нибудь остановить эту войну?
Эпизод 02 - "The Commandos, Phillippines"
Бывший мафиози Лу Ферранте посещает Манилу на Филиппинах и встречается с одной из самых жестоких тюремных банд в мире - Коммандос. Он знакомится с жизнью манильских бандитов.
Эпизод 03 - "The Burqueños, USA"
Лу Ферранте посещает Альбукерке и встречается с одной из самых быстро растущих тюремных банд - Буркеньос. Как они набирают людей в банду, и насколько они угрожают своим соперникам?
Эпизод 04 - "The Camorra, Italy"
Лу едет в Неаполь, где обосновалась одна из самых старых и мощных мафий - Каморра. Недавно в городе обнаружили несколько трупов, что привлекло мировое внимание.
Эпизод 05 - "The Grypser Gang, Poland"
Лу едет в Польшу знакомиться с миром Грипсеров. Он также посещает ряд боссов и свидетеля, который теперь находится под постоянной вооруженной охраной.
--

MediaInfo

General
Complete name : D:\[Movies]\Inside the Gangsters Code\Inside.The.Gangsters.Code.S01E01.The.18th.Street.avi
Format : MPEG-4
Format profile : Base Media / Version 2
Codec ID : mp42
File size : 334 MiB
Duration : 43mn 44s
Overall bit rate mode : Variable
Overall bit rate : 1 068 Kbps
Encoded date : UTC 2013-07-20 07:50:08
Tagged date : UTC 2013-07-20 07:54:46
Writing application : HandBrake rev0 2013051899
Video
ID : 1
Format : AVC
Format/Info : Advanced Video Codec
Format profile : [email protected]
Format settings, CABAC : Yes
Format settings, ReFrames : 4 frames
Codec ID : avc1
Codec ID/Info : Advanced Video Coding
Duration : 43mn 44s
Bit rate : 904 Kbps
Width : 704 pixels
Height : 400 pixels
Display aspect ratio : 16:9
Frame rate mode : Constant
Frame rate : 25.000 fps
Color space : YUV
Chroma subsampling : 4:2:0
Bit depth : 8 bits
Scan type : Progressive
Bits/(Pixel*Frame) : 0.128
Stream size : 283 MiB (85%)
Writing library : x264 core 130 r2273 b3065e6
Encoding settings : cabac=1 / ref=1 / deblock=1:0:0 / analyse=0x1:0x111 / me=hex / subme=2 / psy=1 / psy_rd=1.00:0.00 / mixed_ref=0 / me_range=16 / chroma_me=1 / trellis=0 / 8x8dct=0 / cqm=0 / deadzone=21,11 / fast_pskip=1 / chroma_qp_offset=0 / threads=18 / lookahead_threads=3 / sliced_threads=0 / nr=0 / decimate=1 / interlaced=0 / bluray_compat=0 / constrained_intra=0 / bframes=3 / b_pyramid=2 / b_adapt=1 / b_bias=0 / direct=1 / weightb=1 / open_gop=0 / weightp=1 / keyint=250 / keyint_min=25 / scenecut=40 / intra_refresh=0 / rc_lookahead=10 / rc=crf / mbtree=1 / crf=20.0 / qcomp=0.60 / qpmin=0 / qpmax=69 / qpstep=4 / vbv_maxrate=20000 / vbv_bufsize=25000 / crf_max=0.0 / nal_hrd=none / ip_ratio=1.40 / aq=1:1.00
Encoded date : UTC 2013-07-20 07:50:08
Tagged date : UTC 2013-07-20 07:54:45
Color primaries : BT.601 PAL
Transfer characteristics : BT.709
Matrix coefficients : BT.601
Audio
ID : 2
Format : AAC
Format/Info : Advanced Audio Codec
Format profile : LC
Codec ID : 40
Duration : 43mn 44s
Bit rate mode : Variable
Bit rate : 160 Kbps
Maximum bit rate : 192 Kbps
Channel(s) : 2 channels
Channel positions : Front: L R
Sampling rate : 48.0 KHz
Compression mode : Lossy
Stream size : 50.1 MiB (15%)
Encoded date : UTC 2013-07-20 07:50:08
Tagged date : UTC 2013-07-20 07:54:44
--

Скриншоты



--


Последний раз редактировалось: Zab (2014-08-10 22:35), всего редактировалось 1 раз

Создавать темы 02-Авг-2014 14:55

[Профиль]  [ЛС] 

alezzio

Стаж: 5 лет 1 месяц

Сообщений: 27

Симпатии: 8

пож прибавьте скорость

Создавать темы 06-Авг-2014 13:52

[Профиль]  [ЛС] 

Real

Стаж: 4 года 6 месяцев

Сообщений: 8

skorost dobavte

Создавать темы 30-Ноя-2014 14:35

[Профиль]  [ЛС] 
Показать сообщения:    
Ответить на тему

Текущее время: 23-Сен 03:35

Часовой пояс: UTC + 5



Вы не можете начинать темы
Вы не можете отвечать на сообщения
Вы не можете редактировать свои сообщения
Вы не можете удалять свои сообщения
Вы не можете голосовать в опросах
Вы не можете прикреплять файлы к сообщениям
Вы не можете скачивать файлы