Лего. Фильм / The Lego Movie / Лего. Фильм / The Lego Movie (Фил Лорд, Крис МакКей) [2014 г., Мультфильм, фэнтези, комедия, приключения, BDRip]

Ответить на тему
 

Aziz9892 ®

Стаж: 4 года 2 месяца

Сообщений: 43

Симпатии: 3

Лего. Фильм / The Lego Movie / Лего. Фильм / The Lego Movie
Год выпуска: 2014
Страна: Австралия, США, Дания
Жанр: Мультфильм, фэнтези, комедия, приключения
Продолжительность: 1:40:35
Перевод: Профессиональный (полное дублирование)
Режиссер: Фил Лорд, Крис МакКей
В ролях: Крис Прэтт, Уилл Феррелл, Элизабет Бэнкс, Уилл Арнетт, Лиам Нисон, Морган Фриман, Крэйг Берри, Элисон Бри, Дэвид Берроуз, Энтони Дэниелс
Описание: Обычная лего-фигурка соглашается присоединиться к походу против злого лего-диктатора, планирующего склеить вместе всю вселенную…
Качество: BDRip
Формат: MKV
Видео кодек: H.26x
Аудио кодек: AC3
Видео: AVC / [email protected] / 23,976 fps / 1920х1600 / 12,8 Мбит/сек
Аудио: / AC3 / 48 KHz / 5.1 ch / 384 Кбит/сек( iTunes)
Раздача 24 часа
ВНИМАНИЕ ! На встроенных ТВ-плеерах работать не будет!!!
Железные плееры на которых воспроизводятся полные стереопары:Popcorn C-200 , Dune HD Smart D1 , Dune HD DUO , Dune HD Smart H1 , Dune HD Smart B1 , Dune HD Max , Dune HD TV-303D , Dune HD Base 3D

Релиз от AzizJon tx pc

MediaInfo

Общее
Уникальный идентификатор : 202860449110611599480246628650235153298 (0x989D80584D920044A42133AE57934B92)
Полное имя : E:\закачки\TheLegoMovie.Rip by SeRoGa00.mkv
Формат : Matroska
Версия формата : Version 2
Размер файла : 9,90 Гбайт
Продолжительность : 1 ч. 40 м.
Общий поток : 14,1 Мбит/сек
Дата кодирования : UTC 2014-06-01 10:37:33
Программа кодирования : mkvmerge v3.4.0 ('Rapunzel') сборка от May 15 2010 09:38:20
Библиотека кодирования : libebml v0.8.0 + libmatroska v0.9.0
Видео
Идентификатор : 1
Формат : AVC
Формат/Информация : Advanced Video Codec
Профиль формата : [email protected]
Параметр CABAC формата : Да
Параметр ReFrames формата : 4 кадра
Идентификатор кодека : V_MPEG4/ISO/AVC
Продолжительность : 1 ч. 40 м.
Битрейт : 12,8 Мбит/сек
Ширина : 1920 пикселей
Высота : 1600 пикселей
Соотношение сторон : 1,200
Частота кадров : 23,976 кадра/сек
Цветовое пространство : YUV
Субдискретизация насыщенности : 4:2:0
Битовая глубина : 8 бит
Тип развёртки : Прогрессивная
Бит/(Пиксели*Кадры) : 0.174
Размер потока : 8,99 Гбайт (91%)
Заголовок : Rip by SeRoGa00
Библиотека кодирования : x264 core 138 r2356 a1d3d17
Настройки программы : cabac=1 / ref=4 / deblock=1:-3:-3 / analyse=0x3:0x113 / me=umh / subme=9 / psy=1 / psy_rd=1.00:0.15 / mixed_ref=1 / me_range=24 / chroma_me=1 / trellis=2 / 8x8dct=1 / cqm=0 / deadzone=21,11 / fast_pskip=1 / chroma_qp_offset=-3 / threads=9 / lookahead_threads=1 / sliced_threads=0 / nr=0 / decimate=1 / interlaced=0 / bluray_compat=0 / constrained_intra=0 / bframes=8 / b_pyramid=2 / b_adapt=2 / b_bias=0 / direct=3 / weightb=1 / open_gop=0 / weightp=2 / keyint=250 / keyint_min=23 / scenecut=40 / intra_refresh=0 / rc_lookahead=60 / rc=crf / mbtree=1 / crf=18.0 / qcomp=0.60 / qpmin=10 / qpmax=69 / qpstep=4 / vbv_maxrate=40000 / vbv_bufsize=40000 / crf_max=0.0 / nal_hrd=none / ip_ratio=1.40 / aq=1:1.00
Язык : English
Аудио #1
Идентификатор : 2
Формат : AC-3
Формат/Информация : Audio Coding 3
Расширение режима : CM (complete main)
Идентификатор кодека : A_AC3
Продолжительность : 1 ч. 40 м.
Вид битрейта : Постоянный
Битрейт : 384 Кбит/сек
Каналы : 6 каналов
Расположение каналов : Front: L C R, Side: L R, LFE
Частота : 48,0 КГц
Битовая глубина : 16 бит
Метод сжатия : С потерями
Размер потока : 276 Мбайт (3%)
Язык : Russian
Аудио #2
Идентификатор : 3
Формат : AC-3
Формат/Информация : Audio Coding 3
Расширение режима : CM (complete main)
Идентификатор кодека : A_AC3
Продолжительность : 1 ч. 40 м.
Вид битрейта : Постоянный
Битрейт : 640 Кбит/сек
Каналы : 6 каналов
Расположение каналов : Front: L C R, Side: L R, LFE
Частота : 48,0 КГц
Битовая глубина : 16 бит
Метод сжатия : С потерями
Размер потока : 460 Мбайт (5%)
Язык : English

Скриншоты



Последний раз редактировалось: Aziz9892 (2014-08-02 20:34), всего редактировалось 1 раз

Создавать темы 02-Авг-2014 16:21

[Профиль]  [ЛС] 

Slapper

Стаж: 3 года 11 месяцев

Сообщений: 2193

Симпатии: 213

а че скрины такие мелкие? сделайте их с самого мультфильма. размер скринов должен быть 1920х1600

Создавать темы 02-Авг-2014 16:31

[Профиль]  [ЛС] 

Mixer City

Стаж: 6 лет 10 месяцев

Сообщений: 754

Симпатии: 63

Aziz9892, https://tas-ix.net/viewtopic.php?t=41311

Создавать темы 02-Авг-2014 17:46

[Профиль]  [ЛС] 

Страх

Стаж: 4 года

Сообщений: 1131

Симпатии: 448

Хорошая картина, стоит ее в полном качестве посмотреть.

Создавать темы 02-Авг-2014 19:20

[Профиль]  [ЛС] 

Grablidyork

Стаж: 3 года 11 месяцев

Сообщений: 13

Симпатии: 4

А когда раздача? Проверено уже.

Создавать темы 06-Авг-2014 12:12

[Профиль]  [ЛС] 

gold_man

Стаж: 8 лет 1 месяц

Сообщений: 162

Симпатии: 18

Полного источника не было: Никогда и не будет

Создавать темы 23-Авг-2014 11:20

[Профиль]  [ЛС] 

Aziz9892 ®

Стаж: 4 года 2 месяца

Сообщений: 43

Симпатии: 3

gold_man, согласен

Создавать темы 08-Сен-2014 18:11

[Профиль]  [ЛС] 
Показать сообщения:    
Ответить на тему

Текущее время: 22-Окт 04:07

Часовой пояс: UTC + 5



Вы не можете начинать темы
Вы не можете отвечать на сообщения
Вы не можете редактировать свои сообщения
Вы не можете удалять свои сообщения
Вы не можете голосовать в опросах
Вы не можете прикреплять файлы к сообщениям
Вы не можете скачивать файлы