Обыкновенный фашизм (Андрей Караулов) [2014, Документальный, SATRip]

Ответить на тему
 

Admin ®

Стаж: 5 лет 9 месяцев

Сообщений: 580

Симпатии: 106

Обыкновенный фашизм Дата/Год выпуска: 2014
Страна: Россия
Жанр: Документальный
Продолжительность: 00:50:36
Перевод: Не требуется
Режиссер: Андрей Караулов
Описание: Картина посвящена трагическим событиям на Украине. Название фильма отсылает к классической ленте Михаила Ромма «Обыкновенный фашизм». В интервью ИА «Татар-информ» Андрей Караулов сказал, что работа над картиной началась 10 дней назад. «Оказывается, до сих пор нет ни одного документального фильма в нашей стране, который собрал бы воедино хотя бы часть преступлений, которые случились на юго-востоке Украины в апреле, мае и июне этого года. Вот мы сделали эту работу. И самое главное в этом фильме, разумеется, не вопросы Караулова, а свидетельства тех очевидцев (их более 10 человек), которые нашли в себе мужество и силу рассказать правду, пережив ад в Мариуполе, Одессе и т.д.», - сообщил он. Фильм предназначен для стран Европы, США, Организации Объединенных Наций. «Я разговаривал с министром иностранных дел нашей страны, просил его о помощи -- сделать так, чтобы его посмотрели послы всех стран мира в ООН. Те послы, у которых есть совесть и интерес к подлинным событиям, которые сегодня происходят в Донецкой народной республике», - пояснил журналист. В понедельник, 23 июня, диск с записью картины будет на столе у генерального секретаря ООН. Также Андрею Караулову удалось связаться с начальником канцелярии Барака Обамы и передать письмо и диск, чтобы Президент США посмотрел фильм и озвучил свое заключение о нем. С такой же просьбой автор картины обратился к Президенту Украины Петру Порошенко.
Качество: SATRip
Формат: AVI
Видео кодек: XviD
Аудио кодек: MP3
Видео: MPEG-4 Visual, 640 x 480 (1.333), 1500 Kbps, 25.000 fps
Аудио: MPEG Audio, 2 ch, 128 Kbps, 44.1 KHz

MediaInfo

Format : AVI
Format/Info : Audio Video Interleave
File size : 594 MiB
Duration : 50mn 35s
Overall bit rate : 1 640 Kbps
Writing application : XviD4PSP 6.0 / 53.6.0
Video
ID : 0
Format : MPEG-4 Visual
Format profile : [email protected]
Format settings, BVOP : No
Format settings, QPel : No
Format settings, GMC : No warppoints
Format settings, Matrix : Default (H.263)
Codec ID : XVID
Codec ID/Hint : XviD
Duration : 50mn 35s
Bit rate : 1 500 Kbps
Width : 640 pixels
Height : 480 pixels
Display aspect ratio : 4:3
Frame rate : 25.000 fps
Color space : YUV
Chroma subsampling : 4:2:0
Bit depth : 8 bits
Scan type : Progressive
Compression mode : Lossy
Bits/(Pixel*Frame) : 0.195
Stream size : 543 MiB (91%)
Writing library : XviD 64
Audio
ID : 1
Format : MPEG Audio
Format version : Version 1
Format profile : Layer 3
Mode : Joint stereo
Mode extension : MS Stereo
Codec ID : 55
Codec ID/Hint : MP3
Duration : 50mn 35s
Bit rate mode : Constant
Bit rate : 128 Kbps
Channel(s) : 2 channels
Sampling rate : 44.1 KHz
Compression mode : Lossy
Stream size : 46.3 MiB (8%)
Alignment : Aligned on interleaves
Interleave, duration : 26 ms (0.65 video frame)
Writing library : LAME3.98.2

Скриншоты



Создавать темы 03-Авг-2014 02:09

[Профиль]  [ЛС] 

Sunnat1999

Стаж: 4 года 7 месяцев

Сообщений: 756

Симпатии: 416

Не рекомендуется смотреть детям и впечатлительным людям

Создавать темы 03-Авг-2014 08:23

[Профиль]  [ЛС] 

Страх

Стаж: 4 года

Сообщений: 1131

Симпатии: 448

Надеюсь в списке Гильдии его нет в запрещенных.
В те времена хоть все осознавали что такое фашизм и кто его инициаторы, но в данный
момент ситуация такова, что мир разделился на два фронта, те кто видят и понимают суть проблемы (страны СНГ и Востока) и на тех (Америка и вся Европа) кто осознанно скрывают от мира что в реале происходит.
Не видит зло это нормальное явление, нежели зная и видя злО, скрывать его это уже и есть Зло.©

Создавать темы 03-Авг-2014 10:59

[Профиль]  [ЛС] 

Яна28

Стаж: 4 года 9 месяцев

Сообщений: 39

Симпатии: 2

Спасибо за фильм! Война это страшно! Бедные люди... ужас как жалко...

Создавать темы 07-Авг-2014 09:18

[Профиль]  [ЛС] 

nikish277

Стаж: 4 года 3 месяца

Сообщений: 33

фильм вообще полный вы мне скажите?

Создавать темы 09-Авг-2014 15:02

[Профиль]  [ЛС] 

bobkli

Стаж: 4 года 7 месяцев

Сообщений: 27

Симпатии: 1

863549фильм вообще полный вы мне скажите?
Полный

Создавать темы 22-Авг-2014 12:13

[Профиль]  [ЛС] 

pct

Стаж: 6 лет 8 месяцев

Сообщений: 120

Симпатии: 12

Пропаганда или как?

Создавать темы 14-Окт-2014 16:11

[Профиль]  [ЛС] 

Admin ®

Стаж: 5 лет 9 месяцев

Сообщений: 580

Симпатии: 106

pct, пропаганда чего ?

Создавать темы 14-Окт-2014 17:46

[Профиль]  [ЛС] 

Astrolog

Стаж: 5 лет 4 месяца

Сообщений: 213

Симпатии: 27

884816Пропаганда или как?
Кому как.
Мир вкушает двойные стандарты.
Для кого-то фашизм - уже не фашизм, но норма, а патриотизм - проявление крайне радикального национализма...

Создавать темы 14-Окт-2014 21:18

[Профиль]  [ЛС] 
Показать сообщения:    
Ответить на тему

Текущее время: 21-Окт 02:22

Часовой пояс: UTC + 5



Вы не можете начинать темы
Вы не можете отвечать на сообщения
Вы не можете редактировать свои сообщения
Вы не можете удалять свои сообщения
Вы не можете голосовать в опросах
Вы не можете прикреплять файлы к сообщениям
Вы не можете скачивать файлы