Человек из стали / Man of Steel (Зак Снайдер / Zack Snyder) [2013, США, Канада, Великобритания, фантастика, боевик, приключения, BDRip 1080p] Dub [Лицензия] + Original Eng

Ответить на тему
 

yusuf.0088 ®

Стаж: 4 года

Сообщений: 116

Симпатии: 69

Человек из стали / Man of Steel
-- Год выпуска: 2013
Страна: США, Канада, Великобритания
Жанр: Фантастика, боевик, приключения
Продолжительность: 02:23:03--Перевод: Профессиональный (дублированный) [Лицензия]
Оригинальная аудиодорожка: Английская
Cубтитры: нет--Режиссер: Зак Снайдер / Zack Snyder--В ролях: Генри Кавилл, Эми Адамс, Майкл Шеннон, Кевин Костнер, Дайан Лэйн, Лоренс Фишбёрн, Антье Трое, Айелет Зурер, Рассел Кроу, Гарри Дж. Ленникс--Описание:
Кларк Кент/Кал-Эл — молодой журналист, который чувствует себя чужаком из-за своей невероятной силы. Много лет назад он был отправлен на Землю с развитой планеты Криптон, и теперь задается вопросом: зачем? Воспитанный приемными родителями Мартой и Джонатаном Кентами, Кларк знает: обладать сверхспособностями — значит принимать сложные решения. Но когда человечество более всего нуждается в стабильности, оно подвергается нападению. Сможет ли герой восстановить мир, или воспользуется своей силой для того, чтобы окончательно его разрушить? Кларк должен стать супергероем известным как «Супермен», чтобы вселять надежду в сердца людей и защищать тех, кого он любит.-- --Качество: BDRip 1080p
Контейнер: MKV
Видео: MPEG-4 AVC / High Profile 4.1 / 1920x800 (2.40:1) / 23.976 fps / 11800 kbps
Аудио 1: Русский / AC3 6ch / 48 KHz / 640 kbps |Дубляж|
Аудио 2: Английский / AC3 6ch / 48 KHz / 640 kbps |Original|
Сохранены оригинальные чаптеры как на Blu-Ray

MediaInfo

Формат : Matroska
Версия формата : Version 4 / Version 2
Размер файла : 13,1 Гбайт
Продолжительность : 2 ч. 23 м.
Общий поток : 13,1 Мбит/сек
Название фильма : Man.Of.Steel.2013.BDRip.1080p.by.Yusuf
Дата кодирования : UTC 2014-07-27 09:48:31
Программа кодирования : mkvmerge v6.0.0 ('Coming Up For Air') built on Jan 20 2013 09:52:00
Библиотека кодирования : libebml v1.3.0 + libmatroska v1.4.0
Видео
Идентификатор : 1
Формат : AVC
Формат/Информация : Advanced Video Codec
Профиль формата : [email protected]
Параметр CABAC формата : Да
Параметр ReFrames формата : 5 кадров
Идентификатор кодека : V_MPEG4/ISO/AVC
Продолжительность : 2 ч. 23 м.
Битрейт : 11,8 Мбит/сек
Ширина : 1920 пикселей
Высота : 800 пикселей
Соотношение сторон : 2,40:1
Режим частоты кадров : Постоянный
Частота кадров : 23,976 кадра/сек
Цветовое пространство : YUV
Субдискретизация насыщенности : 4:2:0
Битовая глубина : 8 бит
Тип развёртки : Прогрессивная
Бит/(Пиксели*Кадры) : 0.320
Размер потока : 11,5 Гбайт (88%)
Библиотека кодирования : x264 core 138 r2358 9e941d1
Настройки программы : cabac=1 / ref=5 / deblock=1:-3:-3 / analyse=0x3:0x113 / me=umh / subme=11 / psy=1 / psy_rd=1.00:0.00 / mixed_ref=1 / me_range=32 / chroma_me=1 / trellis=2 / 8x8dct=1 / cqm=0 / deadzone=21,11 / fast_pskip=1 / chroma_qp_offset=-2 / threads=12 / lookahead_threads=1 / sliced_threads=0 / nr=0 / decimate=1 / interlaced=0 / bluray_compat=0 / constrained_intra=0 / bframes=12 / b_pyramid=2 / b_adapt=1 / b_bias=0 / direct=1 / weightb=1 / open_gop=0 / weightp=2 / keyint=240 / keyint_min=23 / scenecut=40 / intra_refresh=0 / rc_lookahead=40 / rc=2pass / mbtree=1 / bitrate=11800 / ratetol=1.0 / qcomp=0.60 / qpmin=0 / qpmax=69 / qpstep=4 / cplxblur=20.0 / qblur=0.5 / vbv_maxrate=50000 / vbv_bufsize=62500 / nal_hrd=none / ip_ratio=1.40 / aq=1:1.00
Язык : English
Default : Да
Forced : Нет
Аудио #1
Идентификатор : 2
Формат : AC-3
Формат/Информация : Audio Coding 3
Расширение режима : CM (complete main)
Параметр Endianness формата : Big
Идентификатор кодека : A_AC3
Продолжительность : 2 ч. 23 м.
Вид битрейта : Постоянный
Битрейт : 640 Кбит/сек
Каналы : 6 каналов
Расположение каналов : Front: L C R, Side: L R, LFE
Частота : 48,0 КГц
Битовая глубина : 16 бит
Метод сжатия : С потерями
Размер потока : 655 Мбайт (5%)
Язык : Russian
Default : Да
Forced : Нет
Аудио #2
Идентификатор : 3
Формат : AC-3
Формат/Информация : Audio Coding 3
Расширение режима : CM (complete main)
Параметр Endianness формата : Big
Идентификатор кодека : A_AC3
Продолжительность : 2 ч. 23 м.
Вид битрейта : Постоянный
Битрейт : 640 Кбит/сек
Каналы : 6 каналов
Расположение каналов : Front: L C R, Side: L R, LFE
Частота : 48,0 КГц
Битовая глубина : 16 бит
Метод сжатия : С потерями
Размер потока : 655 Мбайт (5%)
Язык : English
Default : Нет
Forced : Нет
Меню
00:00:00.000 : en:00:00:00.000
00:11:16.968 : en:00:11:16.968
00:20:01.450 : en:00:20:01.450
00:30:09.474 : en:00:30:09.474
00:39:21.609 : en:00:39:21.609
00:48:57.643 : en:00:48:57.643
00:59:03.415 : en:00:59:03.415
01:08:57.884 : en:01:08:57.884
01:17:35.109 : en:01:17:35.109
01:28:36.186 : en:01:28:36.186
01:40:47.792 : en:01:40:47.792
01:50:55.858 : en:01:50:55.858
02:00:53.580 : en:02:00:53.580
02:10:13.556 : en:02:10:13.556
02:12:49.920 : en:02:12:49.920

Скриншоты

Человек из стали / Man of Steel (BDRemux 1080p)

[url=][/url]

Человек из стали / Man of Steel BDRip (720p)

[url=][/url]
Раздача данного релиза на других ресурсах возможна с указанием релизера

Создавать темы 03-Авг-2014 13:00

[Профиль]  [ЛС] 

GlydeX

Стаж: 4 года 4 месяца

Сообщений: 36

Симпатии: 1

Скорость пожалуйста!

Создавать темы 01-Сен-2014 19:03

[Профиль]  [ЛС] 
Показать сообщения:    
Ответить на тему

Текущее время: 24-Окт 00:03

Часовой пояс: UTC + 5



Вы не можете начинать темы
Вы не можете отвечать на сообщения
Вы не можете редактировать свои сообщения
Вы не можете удалять свои сообщения
Вы не можете голосовать в опросах
Вы не можете прикреплять файлы к сообщениям
Вы не можете скачивать файлы