Гармония музыки - Универсальное обучение [2014 г.]

Ответить на тему
 

Страх ®

Стаж: 4 года

Сообщений: 1131

Симпатии: 448

-- Производитель: Linda Ft. Rustut & Groove идр and Design Maniacus Год выпуска: 2014 Язык: русский+ английский-- Описание: В данную коллекцию собраны видео курсы которые обучают основам музыки, гармонии мелодий. Ноты и всё что связано с ними, гармоничное создание и развитие мелодий. Создание треков и их сведение с помощью самых популярных плагиноff и программ.-
-

1.Денис Чуфаров - Гармония

Денис Чуфаров | Гармония 101 (2013) [PCRec]- Автор (режиссер): Денис Чуфаров
Жанр: Теория музыки
Язык: Русский
Продолжительность: 07:45:24
Качество видео: PCRec
Видеокодек: AVC/H.264
Битрейт видео: ~1 500 Kbps, 30.000 fps
Размер кадра: 1280x720, 16:9
Аудиокодек: AAC
Битрейт аудио: 192 Kbps, 2 channels, 44.1 KHz
Описание: "Гармония 101: Аккорды, последовательности и аранжировка" Для кого этот курс?
Данный курс будет полезен для тех, кто желает повысить свой музыкальный уровень начать разбираться в гармонии, научиться создавать современные последовательности аккордов и применять полученные знания на практике.
Курс окажется полезным также для музыкантов, которые хотят разбираться в современной гармонии и подбирать гармонию на слух.
В конечном итоге, данный видеокурс позволяет не только углубить Ваши знания по гармонии, но и развить навыки композитора и аранжировщика, так как эти темы косвенно рассмотрены в данном курсе.

Содержание:

Основной курс
Введение
Урок 2 Аккорды
Урок 3 Трезвучия
Урок 4 Аккорды sus
Урок 5 Септаккорды и секстаккорды(6)
Урок 6 Применение септаккордов
Урок 7 Пропуск тонов
Урок 8 Сложные аккорды
Урок 9 Римская система и квинтовый круг
Урок 10 Создание последовательностей
Урок 11 Анализ последовательностей
Урок 12 Минорные прогрессии
Урок 13 Анализ известных песен
Урок 14 Типы движения голосов
Урок 15 Типы движения голосов (часть-2)
Урок 16 Хроматическое движение аккордов
Урок 17 Аккорд VIb ступени
Урок 18 Аккорд VIIb ступени
Урок 19 Аккорды с обратной полярностью
Урок 20 Минорные прогрессии в хроматике
Урок 21 Редкие аккорды
Урок 22 Обращения аккордов
Урок 23 Расположение аккордов
Урок 24 Голосоведение
Урок 25 Голосоведение на практике
Урок 26 Основы отклонений и модуляций
Урок 27 Гармония в аранжировке
Урок 28 Анализ песен
Бонус
Урок 1 Основы нотной грамоты
Урок 2 Теория музыки.Ритм-метр-Размер
Урок 3 Сложные размеры
Урок 4 Интервалы
Урок 5 Лад и тональность
Урок 6 Диатонические лады
Урок 7 Аккорды
Урок 8 Музыкальный синтаксис

MediaInfo:

General
Complete name : D:\Tracker\Music legen\1.Денис Чуфаров - Гармония \AutoPlay\Videos\Введение\Введение.mp4
Format : MPEG-4
Format profile : Base Media / Version 2
Codec ID : mp42
File size : 135 MiB
Duration : 10mn 39s
Overall bit rate : 1 771 Kbps
Encoded date : UTC 2013-03-10 06:40:02
Tagged date : UTC 2013-03-10 06:40:02
Video
ID : 1
Format : AVC
Format/Info : Advanced Video Codec
Format profile : [email protected]
Format settings, CABAC : Yes
Format settings, ReFrames : 4 frames
Format settings, GOP : M=1, N=30
Codec ID : avc1
Codec ID/Info : Advanced Video Coding
Duration : 10mn 39s
Source duration : 10mn 39s
Bit rate mode : Variable
Bit rate : 1 500 Kbps
Width : 1 280 pixels
Height : 720 pixels
Display aspect ratio : 16:9
Frame rate mode : Constant
Frame rate : 30.000 fps
Standard : NTSC
Color space : YUV
Chroma subsampling : 4:2:0
Bit depth : 8 bits
Scan type : Progressive
Bits/(Pixel*Frame) : 0.054
Stream size : 114 MiB (85%)
Source stream size : 120 MiB (89%)
Language : English
Encoded date : UTC 2013-03-10 06:40:02
Tagged date : UTC 2013-03-10 06:40:02
mdhd_Duration : 639232
Color primaries : BT.709
Transfer characteristics : BT.709
Matrix coefficients : BT.709
Audio
ID : 2
Format : AAC
Format/Info : Advanced Audio Codec
Format profile : LC
Codec ID : 40
Duration : 10mn 39s
Source duration : 10mn 39s
Bit rate mode : Constant
Bit rate : 192 Kbps
Channel(s) : 2 channels
Channel positions : Front: L R
Sampling rate : 44.1 KHz
Compression mode : Lossy
Stream size : 14.4 MiB (11%)
Source stream size : 14.4 MiB (11%)
Language : English
Encoded date : UTC 2013-03-10 06:40:02
Tagged date : UTC 2013-03-10 06:40:02
mdhd_Duration : 639247

Cкриншоты

2.Теория музыки для начинающих.Ритм

Теория музыки для начинающих. Ритм
Год выпуска: 2010, 2012
Производитель: Sonic Academy
Автор: Грахам Гинти
Продолжительность: 01:08:01
Тип раздаваемого материала: Видеоурок
Язык: Русский
Описание: В первом курсе из серии «Основы теории музыки для начинающих» Грахам Гинти, один из экспертов Sonic Academy, покажет вам структуру ритмов таких популярных направлений музыки, как House, Techno, Hip Hop, Drum’n'Bass и Breakbeat. Кроме того вы ознакомитесь с синкопированными и триольными ритмами, а также с некоторыми другими нюансами одного из важнейших аспектов теории музыки.
Продолжение смотрите здесь RusTuts.com

Содержание

01 Введение
02 Знакомство с ритмической сеткой
03 Создание хаус бита
04 Синкопированные ритмы
05 Создание техно бита
06 Создание хип хоп бита
07 Создание днб бита
08 Создание брейкбита
09 Триольные ритмы
10 Синкопированные басовые линии. Часть 1
11 Синкопированные басовые линии. Часть 2
12 Триольные басовые линии
Файлы примеров: присутствуют
Формат видео: MP4
Видео: AVC, 1200x742, 1,617, 12 кадров/сек, 248 Кбит/сек
Аудио: AAC, 44,1 КГц, ~159 Кбит/сек, 2 канала стерео

Скриншоты

MediaInfo

Общее
Полное имя : G:\Проекты\RusTuts\Раздачи\Теория музыки для начинающих. Ритм - Русская адаптация от RusTuts.com\06 Создание хип хоп бита - [RusTuts.com].mp4
Формат : MPEG-4
Профиль формата : Base Media
Идентификатор кодека : isom
Размер файла : 23,6 Мбайт
Продолжительность : 8 м. 3 с.
Режим общего битрейта : Переменный
Общий поток : 410 Кбит/сек
Программа кодирования : Lavf52.37.0
Видео
Идентификатор : 1
Формат : AVC
Формат/Информация : Advanced Video Codec
Профиль формата : [email protected]
Параметр CABAC формата : Да
Параметр ReFrames формата : 4 кадра
Параметр GOP формата : N=1
Идентификатор кодека : avc1
Идентификатор кодека/Информация : Advanced Video Coding
Продолжительность : 8 м. 2 с.
Битрейт : 248 Кбит/сек
Ширина : 1200 пикселей
Высота : 742 пикселя
Соотношение сторон : 1,617
Режим частоты кадров : Постоянный
Частота кадров : 12,000 кадров/сек
Цветовое пространство : YUV
Субдискретизация насыщенности : 4:2:0
Битовая глубина : 8 бит
Тип развёртки : Прогрессивная
Бит/(Пиксели*Кадры) : 0.023
Размер потока : 14,3 Мбайт (60%)
Аудио
Идентификатор : 2
Формат : AAC
Формат/Информация : Advanced Audio Codec
Профиль формата : LC
Идентификатор кодека : 40
Продолжительность : 8 м. 3 с.
Вид битрейта : Переменный
Битрейт : 159 Кбит/сек
Каналы : 2 канала
Расположение каналов : Front: L R
Частота : 44,1 КГц
Метод сжатия : С потерями
Размер потока : 9,14 Мбайт (39%)

3.Теория музыки для начинающих. Гаммы

Теория музыки для новичков. Гаммы
Год выпуска: 2012
Производитель: Sonic Academy
Автор: Грахам Гинти
Продолжительность: 00:44:11
Тип раздаваемого материала: Видеоурок
Язык: Русский
Описание: Это продолжение серии курсов по теории музыки для новичков. Здесь вы познакомитесь с такими понятиями как лад и тональность. Вы без труда запомните формулу для составления как мажорных, так и минорных ладов. А в практической части научитесь использовать как доступные ступени лада, так и теоретически неправильные ноты.
Продолжение здесь: RusTuts.com

Содержание

01 Введение в гаммы и тональности
02 Мажорные гаммы
03 Минорные гаммы
04 Использование нот, входящих в гамму, при создании бас линии
05 Использование проходящих нот при создании бас линии
06 Использование нот, не входящих в гамму, при создании бас линии
Файлы примеров: присутствуют
Формат видео: MP4
Видео: AVC, 1007x1200, 1,617, 25, 1007 Кбит/сек
Аудио: AAC, 44.1 КГц, ~123 Кбит/сек, стерео

Скриншоты

Доп. информация: P.S. Видео в оригинале тоже «дрожит»

MediaInfo

Общее
Полное имя : G:\Проекты\RusTuts\Раздачи\Теория музыки для начинающих. Гаммы - Русская адаптация от RusTuts.com\01 Введение - [RusTuts.com].mp4
Формат : MPEG-4
Профиль формата : Base Media
Идентификатор кодека : isom
Размер файла : 37,5 Мбайт
Продолжительность : 4 м. 37 с.
Режим общего битрейта : Переменный
Общий поток : 1133 Кбит/сек
Программа кодирования : Lavf52.37.0
Видео
Идентификатор : 1
Формат : AVC
Формат/Информация : Advanced Video Codec
Профиль формата : [email protected]
Параметр CABAC формата : Да
Параметр ReFrames формата : 4 кадра
Идентификатор кодека : avc1
Идентификатор кодека/Информация : Advanced Video Coding
Продолжительность : 4 м. 37 с.
Битрейт : 1007 Кбит/сек
Ширина : 1200 пикселей
Высота : 742 пикселя
Соотношение сторон : 1,617
Режим частоты кадров : Постоянный
Частота кадров : 25,000 кадров/сек
Цветовое пространство : YUV
Субдискретизация насыщенности : 4:2:0
Битовая глубина : 8 бит
Тип развёртки : Прогрессивная
Бит/(Пиксели*Кадры) : 0.045
Размер потока : 33,3 Мбайт (89%)
Аудио
Идентификатор : 2
Формат : AAC
Формат/Информация : Advanced Audio Codec
Профиль формата : LC
Идентификатор кодека : 40
Продолжительность : 4 м. 37 с.
Вид битрейта : Переменный
Битрейт : 123 Кбит/сек
Каналы : 2 канала
Расположение каналов : Front: L R
Частота : 44,1 КГц
Метод сжатия : С потерями
Размер потока : 4,06 Мбайт (11%)

4.Теория музыки. Ритм

Теория музыки. Ритм
Год выпуска: 2011
Производитель: Sonic Academy
Автор: Джэми Шмидт
Продолжительность: 00:35
Тип раздаваемого материала: Видеоурок
Язык: Русский
Описание: В этом курсе, Джэми, один из преподавателей Sonic Academy, поделится с вами секретами создания уникального ритма, без отклонения от общепринятых правил теории музыки. Этот курс предназначен для тех, кто уже имеет некоторые начальные представления о теории ритма.

Содержание

01. Метр
02. Ударные и ритм. Часть 1
03. Ударные и ритм. Часть 2
04. Свинг
05. Составной метр
06. Полиметрия
Файлы примеров: не предусмотрены
Формат видео: MP4
Видео: AVC, 904x560, 1,614, 20,000 кадров/сек, 129 Кбит/сек
Аудио: AAC, 44,1 КГц, ~151 Кбит/сек, 2 канала

Скриншоты

Доп. информация:
MediaInfo
Общее
Полное имя : C:\Users\Woozya\Desktop\05. Составной метр - [rustuts.com].mp4
Формат : MPEG-4
Профиль формата : Base Media
Идентификатор кодека : isom
Размер файла : 10,2 Мбайт
Продолжительность : 5 м. 1 с.
Режим общего битрейта : Переменный
Общий поток : 284 Кбит/сек
Программа кодирования : Lavf52.37.0
Видео
Идентификатор : 1
Формат : AVC
Формат/Информация : Advanced Video Codec
Профиль формата : [email protected]
Параметр CABAC формата : Да
Параметр ReFrames формата : 4 кадра
Идентификатор кодека : avc1
Идентификатор кодека/Информация : Advanced Video Coding
Продолжительность : 5 м. 1 с.
Битрейт : 129 Кбит/сек
Ширина : 904 пикселя
Высота : 560 пикселей
Соотношение сторон : 1,614
Режим частоты кадров : Постоянный
Частота кадров : 20,000 кадров/сек
Цветовое пространство : YUV
Субдискретизация насыщенности : 4:2:0
Битовая глубина : 8 бит
Тип развёртки : Прогрессивная
Бит/(Пиксели*Кадры) : 0.013
Размер потока : 4,64 Мбайт (45%)
Аудио
Идентификатор : 2
Формат : AAC
Формат/Информация : Advanced Audio Codec
Профиль формата : LC
Идентификатор кодека : 40
Продолжительность : 5 м. 1 с.
Вид битрейта : Переменный
Битрейт : 151 Кбит/сек
Каналы : 2 канала
Расположение каналов : Front: L R
Частота : 44,1 КГц
Метод сжатия : С потерями
Размер потока : 5,42 Мбайт (53%)

5.Теория музыки. Гаммы и модальности

Теория музыки — гаммы и лады
Год выпуска: 2011
Производитель: Sonic Academy
Автор: Джэми Шмидт
Продолжительность: 00:53
Тип раздаваемого материала: Видеоурок
Язык: Русский
Описание: Этот курс по теории музыки предназначен для промежуточного уровня и является продолжением курса «Теория музыки для новичков. Лады». Здесь вы узнаете о гаммах и ладах. Знания о ладах очень важны, так как с их помощью можно написать бесчисленное множество интересных и уникальных мелодий. Эксперт Sonic Academy, Джэми Шмидт, не останавливается на теории, а уделяет больше внимания практике.

Содержание

01. Квинтовый круг
02. Мажорная гамма
03. Минорная гамма
04. Лады
05. Лад и мелодия
Файлы примеров: не предусмотрены
Формат видео: AVI
Видео: AVC, 904x568, 1,592, 25 кадров/сек, 698 Кбит/сек
Аудио: MP3, 44,1 КГц, 320 Кбит/сек, Joint stereo

Скриншоты

Доп. информация:

MediaInfo

Общее
Полное имя : C:\Users\Woozya\Desktop\01. Квинтовый круг.avi
Формат : AVI
Формат/Информация : Audio Video Interleave
Размер файла : 56,3 Мбайт
Продолжительность : 7 м. 39 с.
Общий поток : 1028 Кбит/сек
Библиотека кодирования : VirtualDub build 32842/release
Видео
Идентификатор : 0
Формат : AVC
Формат/Информация : Advanced Video Codec
Профиль формата : [email protected]
Параметр CABAC формата : Да
Параметр ReFrames формата : 3 кадра
Идентификатор кодека : H264
Продолжительность : 7 м. 39 с.
Битрейт : 698 Кбит/сек
Ширина : 904 пикселя
Высота : 568 пикселей
Соотношение сторон : 1,592
Частота кадров : 25,000 кадров/сек
Цветовое пространство : YUV
Субдискретизация насыщенности : 4:2:0
Битовая глубина : 8 бит
Тип развёртки : Прогрессивная
Бит/(Пиксели*Кадры) : 0.054
Размер потока : 38,2 Мбайт (68%)
Библиотека кодирования : x264 core 115 r2008bm 4c552d8
Настройки программы : cabac=1 / ref=3 / deblock=1:0:0 / analyse=0x3:0x113 / me=hex / subme=7 / psy=1 / psy_rd=1.00:0.00 / mixed_ref=1 / me_range=16 / chroma_me=1 / trellis=1 / 8x8dct=1 / cqm=0 / deadzone=21,11 / fast_pskip=1 / chroma_qp_offset=-2 / threads=2 / sliced_threads=1 / slices=2 / nr=0 / decimate=1 / interlaced=0 / bluray_compat=0 / constrained_intra=0 / bframes=0 / weightp=2 / keyint=250 / keyint_min=25 / scenecut=40 / intra_refresh=0 / rc=crf / mbtree=0 / crf=22.1 / qcomp=0.60 / qpmin=0 / qpmax=69 / qpstep=4 / ip_ratio=1.40 / aq=1:1.00
Аудио
Идентификатор : 1
Формат : MPEG Audio
Версия формата : Version 1
Профиль формата : Layer 3
Режим : Joint stereo
Расширение режима : MS Stereo
Идентификатор кодека : 55
Идентификатор кодека/Подсказка : MP3
Продолжительность : 7 м. 39 с.
Вид битрейта : Постоянный
Битрейт : 320 Кбит/сек
Каналы : 2 канала
Частота : 44,1 КГц
Метод сжатия : С потерями
Размер потока : 17,5 Мбайт (31%)
Выравнивание : Разделение по промежуткам
Продолжительность промежутка : 40 мс. (1,00 видеокадр)
Время предзагрузки промежутка : 500 мс.
Библиотека кодирования : LAME3.98.2

6.Профессиональное Сведение Дома Steinberg Cubase

Steinberg Cubase Artist 7: Профессиональное Сведение Дома [Обучающий Демо-Видеокурс На Русском Языке]
Год выпуска: 2014
Производитель: TheTunes
Сайт производителя: TheTunes.ru
Автор: Максим Хожаинов
Язык: Русский
Тип раздаваемого материала: Видеоклипы
Продолжительность: 01:21:41
Описание:
Без студийного оборудования, без "железа", без огромных денежных и временных затрат.
Параметры видео/аудио:
Формат видео: MP4
Видео: AVC 1920x1080 16:9 25fps 2100kbps
Аудио: Audio: AAC 44100Hz stereo 125kbps

Содержание

01. Сведение мощного Drop Lead
02. Сведение основных лидов
03. Сведение басов
04. Сведение вокала
05. Сведение соло гитар

Скриншоты

7.1.Groove3 - FabFilter Mixing and Mastering ENG

Groove3 - FabFilter Mixing and Mastering Plug-Ins Explained
Год выпуска: 2014
Производитель: Groove3
Сайт производителя: www.groove3.com/str/FabFilter-Mixing-And-Mastering-Plug-Ins-Explained.html
Автор: Mark Struthers
Продолжительность: 02:26:00
Тип раздаваемого материала: Видеоурок
Язык: Английский
Описание: FabFilter делает наилучшие инструменты для производства музыки и обработки звука, а Groove3 делает лучшие видео о плагинах FabFilter! Следуйте вперед, поскольку студийный гуру Mark Struthers шаг за шагом проведет вас через люкс-плагины FabFilter, предназначенные для Микширования и Мастеринга, и покажет превосходные аудио примеры, в которых вы сможете услышать, что все эти плагины могут делать.
FabFilter makes the best possible tools for music production and audio processing, and Groove3 makes the best videos for FabFilter plug-ins! Follow along as studio guru Mark Struthers takes you through the FabFilter Mixing and Mastering plug-in suite, step by step, with excellent audio examples so you hear what they all can do.
Mark begins with an introduction covering what you'll learn in the series and more. Next, Mark jumps right in, dissecting the amazing Pro-DS De-Esser plug-in, followed by the powerful Pro-C Compressor plug-in. You'll learn what all the features and functions do, as well as hear them in-action on Vocals, Snare Drum, Master Bus and more. Expert Mode is also shown, and Mark demonstrates how to do Parallel Compression and Mid-Side Processing to give you complete coverage of this powerful plug-in.
Continuing on, Mark serves up the Pro-G Gate / Expander plug-in, explaining all of its knobs and buttons, and gives examples on removing 'dead air' from your tracks, mic spill on a snare drum track and more. Pro-L is up next, and Mark demystifies this powerhouse Limiting plug-in, enlightening you as he goes. Learn all of its parameters, modes and metering options, and hear it do its thing on a Submix, creating a huge sound with plenty of punch.
Mark saves the best for last, showing you the incredible Pro-Q Equalizer and Pro-MB Multiband / Expander plug-ins inside and out. See and hear them work on audio while Mark explains all of their controls in detail, as well as how to use them to sculpt your sound both surgically and or with broad strokes. You'll even get useful shortcuts for working with these plug-ins that will save you time and boost creativeness.
If you mix or master music, why not sound fabulous? Learn how to get the most from these truly amazing sounding plug-ins, watch "FabFilter Mixing & Mastering Plug-Ins Explained" today...

Содержание

01 Introduction
02 Pro-DS Overview
03 Pro-DS with Vocal Track
04 Pro-DS with Backing Vocals
05 Pro-DS External Sidechaining
06 Pro-C User Interface
07 Pro-C in Action
08 Pro-C Parallel Compression
09 Pro-C Expert Mode
10 Pro-C Mid/Side Introduction
11 Pro-G Gating Overview
12 Pro-G In Action
13 Pro-G Vocal Gating
14 Pro-L Limiting Introduction
15 Pro-L on SubMix
16 More Pro-L Details
17 Pro-Q First Look
18 Pro-Q - Finding Sweet Spots
19 Pro-Q Mid Side
20 Pro-MB User Interface
21 Pro-MB In Action
22 Pro-MB - More Functions
Файлы примеров: отсутствуют
Формат видео: MP4
Видео: AVC, 1600x900, 16:9, 30.000 fps, ~387 Kbps
Аудио: AAC, 44.1 KHz, ~125 Kbps, 2 channels

Скриншоты

7.Сведение и Миксование ENG Groove3 - Mix School

Groove3 - Mix School 101
Год выпуска: 2012
Производитель: Groove3
Сайт производителя:Groove3
Автор: Russ Hughes
Продолжительность: 04:08:12
Тип раздаваемого материала: Видеоурок
Язык: Английский
Описание: Более 4-х часов видео обучения по сведению от знаменитого Russ Hughes, в котором подробно рассмотрены все стадии сведения, начиная от анатомии микса и заканчивая сведением инструментов в популярном Pro Tools 10. Хотя этот урок был создан в Pro Tools, все эти приемы и способы вы легко сможете использовать в любом вашем любимом секвенсоре. Видео будет полезно как новичкам, так и более опытным музыкантам и продюсерам.
Are you just getting into mixing music? If so, boy are you lucky you found this collection of awesome tutorials by DAW guru Russ Hughes, co founder of Pro-Tools-Expert.com! Russ helps those either new to mixing, or who just don't feel satisfied with their mixes by starting right at the beginning, looking at what mixing is, and what makes a good mix. Then Russ performs a full, in-depth "over the shoulder" mixing session, explaining it all as he goes.
This series, although shown in Pro Tools 10, will help anyone on any DAW craft and hone their mixes into much better, professional sounding tracks that you can be proud of, as the theories presented apply to any DAW.
Russ starts with a detailed introduction to mixing, shows you "shapes" of mixes, the anatomy of a mix and mix "house keeping" to better manage and increase your mixing workflow. Next Russ gets into using groups and editing your tracks to make them mix ready. Russ then focuses on main vocals and background vocals, showing you how to get that "big" vocal sound.
The instruments are next to be mixed, including acoustic guitars, piano and keyboards, bass, drums, electric guitars and more! Russ then dives into important final tweaks, using automation and adding "magic dust" on the master buss. The final mix is then performed and Russ shows you how to bounce it to disc, and or use other means to create your master stereo file to share with the world. Just when you think it's over, Russ has included a bonus video called "Cleaning Up Live Drums" for those who need how to do so.
At over 4 hours long this series is designed to give the viewer the solid basics of mixing. This is great for someone just starting out, or for those who wish to visit the basics again to see if they have missed anything important. Even though this series is shown in Pro Tools 10, you'll be able to use the practices and theories on your own mixes in any DAW. Don't wait any longer, move to the top of the class... Watch "Mix School 101" today.

Содержание

01. Introduction
02. The Shape of a Mix
03. The Anatomy of a Mix
04. Mix House Keeping Yout Mix
05. Using Mix And Edit Groups
06. Editing
07. The Vocals
08. Backing Vocals
09. Acoustic Guitars
10. Piano And Keyboards
11. Retuning The Piano
12. The Bass
13. Drums
14. Electric Guitars
15. Beats And Percussion
16. Final Tweaks And Automation
17. The Fina lMix
18. Bouncing To Disk
19. Bonus Session
Файлы примеров: не предусмотрены
Формат видео: MP4
Видео: AVC, 1024x768, 4:3, 5.288 fps, ~ 387 Kbps
Аудио: AAC, 44.1 KHz, ~159-321 Kbps, 2 channels

Медиаинфо

Общее
Полное имя : E:\Groove3 - Mix School 101\Groove3 - Mix School 101\01Introduction_HD.mp4
Формат : MPEG-4
Профиль формата : Base Media / Version 2
Идентификатор кодека : mp42
Размер файла : 23,3 Мбайт
Продолжительность : 5 м. 55 с.
Режим общего битрейта : Переменный
Общий поток : 550 Кбит/сек
Название фильма : Introduction
Альбом/Исполнитель : Russ Hughes
Часть/Положение : 1
Часть/Всего : 1
Трек/Положение : 1
Трек/Всего : 19
Исполнитель : Mix School 101
Жанр : Video Training
Дата кодирования : UTC 2012-11-10 04:51:32
Дата пометки : UTC 2012-11-09 05:05:45
Правообладатель : 2012 Groove 3 Inc.
Обложка : Yes
desc : What is mixing? What makes a good mix? How is a mix put together? Find out what goes into making a mix happen and the things that need to be considered.
ldes : What is mixing? What makes a good mix? How is a mix put together? Find out what goes into making a mix happen and the things that need to be considered.
stik : 10
iTunMOVI : / / / / directors / / / name / Russ hughes / / / producers / / / name / Groove 3 Inc. / / / /
tvsh : Mix School 101
tves : 1
tvnn : www.groove3.com
Видео
Идентификатор : 1
Формат : AVC
Формат/Информация : Advanced Video Codec
Профиль формата : [email protected]
Параметр CABAC формата : Да
Параметр ReFrames формата : 4 кадра
Идентификатор кодека : avc1
Идентификатор кодека/Информация : Advanced Video Coding
Продолжительность : 5 м. 55 с.
Вид битрейта : Переменный
Битрейт : 387 Кбит/сек
Ширина : 1024 пикселя
Высота : 768 пикселей
Соотношение сторон : 4:3
Режим частоты кадров : Переменный
Частота кадров : 5,288 кадров/сек
Минимальная частота кадров : 5,205 кадров/сек
Максимальная частота кадров : 5,374 кадров/сек
Цветовое пространство : YUV
Субдискретизация насыщенности : 4:2:0
Битовая глубина : 8 бит
Тип развёртки : Прогрессивная
Бит/(Пиксели*Кадры) : 0.093
Размер потока : 16,4 Мбайт (71%)
Библиотека кодирования : x264 core 120
Настройки программы : cabac=1 / ref=2 / deblock=1:0:0 / analyse=0x1:0x111 / me=hex / subme=6 / psy=1 / psy_rd=1.00:0.00 / mixed_ref=0 / me_range=16 / chroma_me=1 / trellis=0 / 8x8dct=0 / cqm=0 / deadzone=21,11 / fast_pskip=1 / chroma_qp_offset=-2 / threads=12 / sliced_threads=0 / nr=0 / decimate=1 / interlaced=0 / bluray_compat=0 / constrained_intra=0 / bframes=2 / b_pyramid=2 / b_adapt=1 / b_bias=0 / direct=1 / weightb=0 / open_gop=0 / weightp=2 / keyint=50 / keyint_min=5 / scenecut=40 / intra_refresh=0 / rc_lookahead=40 / rc=2pass / mbtree=1 / bitrate=387 / ratetol=1.0 / qcomp=0.60 / qpmin=3 / qpmax=69 / qpstep=4 / cplxblur=20.0 / qblur=0.5 / ip_ratio=1.40 / aq=1:1.00
Дата кодирования : UTC 2012-11-10 04:51:32
Дата пометки : UTC 2012-11-10 04:51:48
Основные цвета : BT.709
Характеристики трансфера : BT.709
Коэффициенты матрицы : BT.709
Аудио
Идентификатор : 2
Формат : AAC
Формат/Информация : Advanced Audio Codec
Профиль формата : LC
Идентификатор кодека : 40
Продолжительность : 5 м. 55 с.
Вид битрейта : Переменный
Битрейт : 159 Кбит/сек
Максимальный битрейт : 321 Кбит/сек
Каналы : 2 канала
Расположение каналов : Front: L R
Частота : 44,1 КГц
Метод сжатия : С потерями
Задержка видео : 377 мс.
Размер потока : 6,73 Мбайт (29%)
Язык : English
Дата кодирования : UTC 2012-11-10 04:51:32
Дата пометки : UTC 2012-11-10 04:51:48

Скриншоты

8.Сведение Рок-Песни в Pro Tools

Lynda.com - Сведение Рок-Песни в Pro Tools
Год выпуска: 2014
Производитель: Lynda.com
Сайт производителя: www.lynda.com/Pro-Tools-tutorials/Mixing-Rock-Song-Pro-Tools/101073-2.html
Автор: Brian Lee White
Озвучивание: Майк Миханзон
Продолжительность: 02:18:52
Тип раздаваемого материала: Видеоурок
Язык: Русский
Описание: Профессиональный звукорежиссер Брайан Ли Вайт на протяжении всего курса доведет сырую рок-песню до блестящего звука в Avid Pro Tools. Он использует эквализацию, компрессию, распределяет пространство микса, вешает спецэффекты, удало обрабатывает вокал и ритм секцию. "Mixing a Rock Song in Pro Tools" - станьте профи в сведении рока.
Watch professional mixer Brian Lee White take a rock song from the raw recorded tracks to a great-sounding, polished mix in Avid Pro Tools. The course moves at a quick pace, showing how to establish a workflow for a particular song and make mixing decisions on the fly. Watch as Brian quickly sets initial levels, sculpts the individual tracks with EQ and compression, uses spatial and special effects to create depth and interest, balances the lead vocal and rhythm section, and adds the finishing touches before bouncing down the mix. Brian also stresses the importance of "thinking like a mixer" by being creative and serving the song, exploring ideas that inspire you, and breaking away from the template mindset.

Содержание

0101 - Добро пожаловать!
0102 - Что нужно знать перед просмотром этого курса?
0103 - Использование файлов упражнений
0201 - Установка начальных первичных уровней и построение фундамента
0202 - Сделай из ведущего вокала звезду
0203 - Заполнение в ритм-секции
0204 - Обернитесь назад, и станьте креативными
0205 - Использование автоматизации для создания волнения и контраста
0206 - Пересмотр и баунс финального микса
Файлы примеров: присутствуют
Формат видео: MP4
Видео: AVC, 960x540, 16:9, 15,000 кадров/сек, ~1 452 Кбит/сек
Аудио: AAC, 48,0 КГц, ~144 Кбит/сек, 2 канала

Скриншоты

9.Streamworks Audio -Complete iZotope Ozone 5

Streamworks Audio (SWA) - Complete iZotope Ozone 5
Год выпуска: 2013
Производитель: Streamworks Audio (SWA)
Сайт производителя: www.streamworksaudio.com/products/completeOzone5
Автор: Walt Hunnicutt
Продолжительность: 01:53:55
Тип раздаваемого материала: Видеоурок
Язык: Английский
Описание: В курсе Complete iZotope Ozone 5 от SWA вы кинете глубокий взгляд на этот замечательный мастеринговый плагин от iZotope. Инструктор SWA Walt Hunnicutt проведет вас шаг за шагом через Ozone на этапе мастеринга. Это видео содержит информацию, полезную как для начинающих, так и для опытных профессионалов.
SWA Complete iZotope Ozone 5 takes an in depth look at this remarkable mastering plug in from iZotope. SWA instructor Walt Hunnicutt takes you through both Ozone and the mastering process step by step. This video contains information useful to beginners as well as seasoned professionals.
Course Description:
Ozone 5 Complete contains 10 chapters and in addition to covering how to use each of the modules in Ozone 5, the series will also cover the fundamentals of mastering and a detailed chapter on dithering.
Файлы примеров: не предусмотрены
Формат видео: M4V
Видео: AVC, 1280x720, 16:9, 29.970 fps, ~468 Kbps
Аудио: AAC, 48.0 KHz, ~128 Kbps, 2 channels

Скриншоты

10.Обучение Ударных - Инструмент Battery 3

Battery 3 RUS Tutorial by Team MadeYouPro
Производитель: Native Instruments / Team MadeUPro
Год выпуска: 2010
Язык: русский
Описание: Творческая группа "MadeYouPro" представляет вам свой дебютный релиз. Учитывая низкое качество предыдущих попыток любительского перевода и озвучки иностранных туториалов в исполнении отдельных энтузиастов либо других команд, мы решили создать серию действительно качественных переводов с профессиональной озвучкой. Туториал записывался и сводился в современной профессиональной студии, под руководством опытных мастеров своего дела, пожелавших остаться в тени
В данном туториале вас ждет близкое знакомство и демонстрация большинства функций одного из самых лучших и популярных инструментов для работы с ударными - NI Battery 3. Особенно незаменимым данное видео будет для тех, кто только начинает знакомство с Battery либо разобрались поверхностно и хотят углубить свои знания.
После внимательного просмотра Туториала вы сможете незамедлительно приступить к работе с Battery 3. Успехов!
Содержание:
1) Быстрый старт
2) Что нового?
3) Библиотека
4) Матрица ячеек
5) Артикуляции барабанов
6) Эффекты и мастер эффекты
7) Лупы
8) Саунд Дизайн

Обязательно читаем РУКОВОДСТВО К ПРОСМОТРУ внутри раздачи!!!
Видео кодек: H.264 MPEG4 / Flash Video
Видео: 908x644 pixels; 1 712 Kbps; 4:3 / 288 x 240 pixels; 234 Kbps; 5:4
Аудио: mp3 stereo 320 Kbps; 44.100 Hz / mp3 mono 64kbps; 22.050 Hz
(основное видео / видео в доп. материалах)

Скриншоты

11.СУПЕР ВИДЕО КУРС ПРО ГАРМОНИЮ "СУМАСШЕДШАЯ ГАРМОНИЯ"-- -
Релиз подготовлен в целях ознакомить пользователей. Данная информация не имеет корпоративного или маркетингового характера. Информация выкладывается как есть*из источников сети Publik. И использующие данную информацию юзеры только лишь могут ознакомиться с ней. Дальнейшее использование данного контента в целях sale to job не имеет смысла. Файлы были изменены в соответствии с GPU открытой лицензии. All right reserved for free
-


Последний раз редактировалось: Страх (2014-09-09 20:37), всего редактировалось 2 раз(а)

Создавать темы 03-Авг-2014 20:37

[Профиль]  [ЛС] 

Agness

Стаж: 5 лет 5 месяцев

Сообщений: 208

Симпатии: 10

Скриншоты

Создавать темы 03-Авг-2014 21:24

[Профиль]  [ЛС] 

Страх ®

Стаж: 4 года

Сообщений: 1131

Симпатии: 448

РЕКОМЕНДУЕТСЯ ЕЩЕ ПОСМОТРЕТЬ-СУПЕР ВИДЕО КУРС ПРО ГАРМОНИЮ "СУМАСШЕДШАЯ ГАРМОНИЯ" [2010 г.]


Последний раз редактировалось: Страх (2014-09-09 20:23), всего редактировалось 1 раз

Создавать темы 03-Авг-2014 22:03

[Профиль]  [ЛС] 

GRunK

Стаж: 5 лет 1 месяц

Сообщений: 23

Симпатии: 2

Страх, Благодарю за такую коллекцию урок а теперь будь добр не уходи с раздачи сидируй хотя бы месяцок а то у меня скорость слабая

Создавать темы 04-Авг-2014 00:34

[Профиль]  [ЛС] 

fayz_d89

Стаж: 3 года 9 месяцев

Сообщений: 6

Страх, Спасибо тебе, добрый Человек!!!

Создавать темы 10-Сен-2014 18:35

[Профиль]  [ЛС] 

leganze

Стаж: 5 лет 9 месяцев

Сообщений: 2

Спасибо что залили такой видео курс!!!Дайте скорости пожалуйста!)

Создавать темы 17-Ноя-2014 15:06

[Профиль]  [ЛС] 

Doniyor

Стаж: 4 года 7 месяцев

Сообщений: 28

Симпатии: 3

Да да спасибо биггг

Создавать темы 17-Июн-2015 20:23

[Профиль]  [ЛС] 

doc_93

Стаж: 4 года 7 месяцев

Сообщений: 7

razda4u davaite reb9ta pojalyusta!!!

Предупреждение от nadezcda


3.9. Запрещается писать translitom, ВСЕМИ ЗАГЛАВНЫМИ или КоМБиНацИей строчных и ЗАГЛАВНЫХ букв.
6.8. В комментариях запрещается создавать бессмысленные сообщения, не несущие абсолютно никакой полезной информации ( "дайте скорости", "встаньте на раздачу", "раздаю", "газу" и т.п.).

Создавать темы 05-Авг-2015 09:09

[Профиль]  [ЛС] 
Показать сообщения:    
Ответить на тему

Текущее время: 21-Окт 21:02

Часовой пояс: UTC + 5



Вы не можете начинать темы
Вы не можете отвечать на сообщения
Вы не можете редактировать свои сообщения
Вы не можете удалять свои сообщения
Вы не можете голосовать в опросах
Вы не можете прикреплять файлы к сообщениям
Вы не можете скачивать файлы