Входите без стука / Don't Come Knocking (Вим Вендерс) [2005 г., драма, музыка, ..., DVDRip]

Ответить на тему
 

igor1968 ®

Стаж: 5 лет 8 месяцев

Сообщений: 366

Симпатии: 197

Входите без стука / Don't Come Knocking Год выпуска: 2005
Страна:
Жанр: драма, музыка, ...
Продолжительность: 01:58:20.399
Перевод: Профессиональный (полное дублирование)
Режиссер: Вим Вендерс

В главных ролях:
Джеймс Родэй
Джефф Парис
Маджандра Делфино
Марайа Делфино
Сэм Шепард
Джордж Кеннеди
Джулия Суини
Тим Мэтисон
Джеймс Гэммон
Тим Рот
...


Роли дублировали:
Александр Груздев
Виктор Бохон
Валерий Сторожик
Людмила Ильина
Александр Рыжков

История знаменитого актера жанра вестерн — Говарда Спенса. В 60 лет Спенс — наркоман, алкоголик, гуляка. Но однажды во время съемок, приняв немало спиртного, он задумался о смысле своей жизни и обнаружил, что никому не нужен, и никто не будет горевать, когда он умрет.
Спенс сбегает с киноплощадки, уезжает в маленький городок в штате Невада, где он вырос, где живет его 80-летняя мать. В этом городке он встречает Дорин — одну из своих бывших поклонниц и… мать его ребенка, от которого Говард отказался двадцать лет назад…   Качество: DVDRip
Формат: AVI
Видео кодек: XviD
Аудио кодек: AC3
Видео: 720x400 (1.80:1), 25 fps, XviD build 50 ~2028 kbps avg, 0.28 bit/pixel
Аудио: 48 kHz, AC3 Dolby Digital, 3/2 (L,C,R,l,r) + LFE ch, ~448.00 kbps avg

MediaInfo

General
Complete name : Whodite.bez.stuka.2005.XviD.DVDRip.kinozal.tv.avi
Format : AVI
Format/Info : Audio Video Interleave
Format profile : OpenDML
File size : 2.05 GiB
Duration : 1h 58mn
Overall bit rate : 2 484 Kbps
Writing application : VirtualDubMod 1.5.4.1 (build 2178/release)
Writing library : VirtualDubMod build 2178/release
Video
ID : 0
Format : MPEG-4 Visual
Format profile : Advanced [email protected]
Format settings, BVOP : No
Format settings, QPel : No
Format settings, GMC : No warppoints
Format settings, Matrix : Custom
Codec ID : XVID
Codec ID/Hint : XviD
Duration : 1h 58mn
Bit rate : 2 027 Kbps
Width : 720 pixels
Height : 400 pixels
Display aspect ratio : 16:9
Frame rate : 25.000 fps
Color space : YUV
Chroma subsampling : 4:2:0
Bit depth : 8 bits
Scan type : Progressive
Compression mode : Lossy
Bits/(Pixel*Frame) : 0.281
Stream size : 1.68 GiB (82%)
Writing library : XviD 1.2.1 (UTC 2008-12-04)
Audio
ID : 1
Format : AC-3
Format/Info : Audio Coding 3
Mode extension : CM (complete main)
Format settings, Endianness : Big
Codec ID : 2000
Duration : 1h 58mn
Bit rate mode : Constant
Bit rate : 448 Kbps
Channel(s) : 6 channels
Channel positions : Front: L C R, Side: L R, LFE
Sampling rate : 48.0 KHz
Bit depth : 16 bits
Compression mode : Lossy
Stream size : 379 MiB (18%)
Alignment : Split accross interleaves
Interleave, duration : 96 ms (2.40 video frames)
Interleave, preload duration : 96 ms
Language : Russian

Создавать темы 04-Авг-2014 11:33

[Профиль]  [ЛС] 
Показать сообщения:    
Ответить на тему

Текущее время: 23-Ноя 14:23

Часовой пояс: UTC + 5



Вы не можете начинать темы
Вы не можете отвечать на сообщения
Вы не можете редактировать свои сообщения
Вы не можете удалять свои сообщения
Вы не можете голосовать в опросах
Вы не можете прикреплять файлы к сообщениям
Вы не можете скачивать файлы