Раш / Rush (US) / Сезон: 1 / Серии: 1-10 из 10 (Билл Джонсон) [2014, драма, криминал, WEB-DL 400p] MVO (IDEAFILM) + Original

Ответить на тему
 

emilsky ®

Стаж: 7 лет 1 месяц

Сообщений: 2237

Симпатии: 610

Раш / Rush
Год выпуска: 2014
Страна: Канада
Жанр: драма, криминал, комедия
Продолжительность: ~00:45:00
Перевод: Профессиональный (многоголосый закадровый) IDEAFILM-Режиссёр: Билл Джонсон
В ролях: Тич Грант, Том Эллис, Лоренц Тейт, Сара Хабель, Рик Гонсалес, Брайан Маркинсон, Роландо Молина, Quintin Warner, Билли Лаш, Одетт Эннэйбл и другие-Описание:
Доктор Уильям Раш не похож на обычного терапевта. Он не работает в больнице и чрезвычайно внимателен к любому вашему недугу до тех пор, пока ему платят и он может тусоваться в высших кругах общества. У него не было ни малейшего желания менять свой образ жизни, пока любовь всей его жизни и угрызения совести не перевернули всё вверх дном.
Доп. информация:
Перевод: Максим Митин
Озвучание: IDEAFILM-Качество: WEB-DL 400p
Контейнер: AVI
Видео: Xvid, 720x400, 23.976fps, 0.110 bit/pixel
Аудио: русский / IDEAFILM, AC3, 48 kHz, 5.1, 384 kbps
Субтитры: отсутствуют

Список серий

1. Pilot

MediaInfo

Format : AVI
Format/Info : Audio Video Interleave
File size : 355 MiB
Duration : 43mn 9s
Overall bit rate : 1 150 Kbps
Writing application : VirtualDubMod 1.5.10.3 | www.virtualdub-fr.org || (build 2550/release)
Writing library : VirtualDubMod build 2550/release
Video
ID : 0
Format : MPEG-4 Visual
Format profile : Advanced [email protected]
Format settings, BVOP : Yes
Format settings, QPel : No
Format settings, GMC : No warppoints
Format settings, Matrix : Default (H.263)
Codec ID : XVID
Codec ID/Hint : XviD
Duration : 43mn 9s
Bit rate : 757 Kbps
Width : 720 pixels
Height : 400 pixels
Display aspect ratio : 16:9
Frame rate : 23.976 fps
Color space : YUV
Chroma subsampling : 4:2:0
Bit depth : 8 bits
Scan type : Progressive
Compression mode : Lossy
Bits/(Pixel*Frame) : 0.110
Stream size : 234 MiB (66%)
Writing library : XviD 73
Audio
ID : 1
Format : AC-3
Format/Info : Audio Coding 3
Mode extension : CM (complete main)
Format settings, Endianness : Big
Codec ID : 2000
Duration : 43mn 9s
Bit rate mode : Constant
Bit rate : 384 Kbps
Channel count : 6 channels
Channel positions : Front: L C R, Side: L R, LFE
Sampling rate : 48.0 KHz
Bit depth : 16 bits
Compression mode : Lossy
Stream size : 119 MiB (33%)
Alignment : Split accross interleaves
Interleave, duration : 42 ms (1.00 video frame)
Interleave, preload duration : 500 ms
: No

Скриншоты



Последний раз редактировалось: emilsky (2014-10-06 09:49), всего редактировалось 6 раз(а)

Создавать темы 04-Авг-2014 17:52

[Профиль]  [ЛС] 

emilsky ®

Стаж: 7 лет 1 месяц

Сообщений: 2237

Симпатии: 610

2 серия!

Создавать темы 10-Авг-2014 18:30

[Профиль]  [ЛС] 

emilsky ®

Стаж: 7 лет 1 месяц

Сообщений: 2237

Симпатии: 610

3 серия!

Создавать темы 24-Авг-2014 10:44

[Профиль]  [ЛС] 

emilsky ®

Стаж: 7 лет 1 месяц

Сообщений: 2237

Симпатии: 610

4 серия!

Создавать темы 03-Сен-2014 06:17

[Профиль]  [ЛС] 

emilsky ®

Стаж: 7 лет 1 месяц

Сообщений: 2237

Симпатии: 610

5 серия!

Создавать темы 11-Сен-2014 20:25

[Профиль]  [ЛС] 

emilsky ®

Стаж: 7 лет 1 месяц

Сообщений: 2237

Симпатии: 610

обновлено до 10 финальной серии!

Создавать темы 06-Окт-2014 09:50

[Профиль]  [ЛС] 

AZIZ97

Стаж: 4 года 11 месяцев

Сообщений: 199

Симпатии: 22

посмотрел первые 3 серии, очень понравилось спасибо за хорошо потрачиное время

Создавать темы 07-Окт-2014 23:45

[Профиль]  [ЛС] 

AZIZ97

Стаж: 4 года 11 месяцев

Сообщений: 199

Симпатии: 22

американцы вообще походу сума сошли,такой классный сериал закрыть св0л0чи!!!!

Создавать темы 10-Окт-2014 13:20

[Профиль]  [ЛС] 
Показать сообщения:    
Ответить на тему

Текущее время: 17-Авг 06:58

Часовой пояс: UTC + 5



Вы не можете начинать темы
Вы не можете отвечать на сообщения
Вы не можете редактировать свои сообщения
Вы не можете удалять свои сообщения
Вы не можете голосовать в опросах
Вы не можете прикреплять файлы к сообщениям
Вы не можете скачивать файлы