Оставшийся в живых / Survivor (Джон Лойд) [2014 г., Фантастика, фэнтези, боевик, BDRip-AVC]

Ответить на тему
 

Bek19-82 ®

Стаж: 6 лет 2 месяца

Сообщений: 66

Симпатии: 1

Оставшийся в живых / Survivor
Год выпуска: 2014
Страна: США
Жанр: Фантастика, фэнтези, боевик
Продолжительность: 01:33:03
Перевод: любительское, одноголосое andi + оригинал [английский]
Режиссер: Джон Лойд
В ролях: Даниэль Чачран, Кевин Сорбо, Пол Хант, Никки Поснер, Джеймс С. Моррис, Блейк Уэбб, Дебора Ли Дуглас, Эбигейл Мэйсон, Мелани Стоун, Дейв Бреснахан
Описание: Как только юная Кейт Митра обнаруживает обитаемую планету для тех, кто остался от человечества, удар метеорита разрушает ее космический корабль и она терпит крушение в таинственном пустынном мире. Как Кейт, капитан Хантер и другие выжившие приземляются, но попадают в засаду банды постапокалиптических воинов и мутировавших дикарей. Кейт просыпается связанной в пещере, захваченная плотоядными пещерными существами и вдали от ее друзей. Она должна научиться доверять таинственным гуманоидам планеты для того, чтобы обогнать, перехитрить и победить орду кровожадных инопланетян и огромного волка-мутанта и спасти своих друзей и своего капитана прежде, чем они все будут съедены заживо.

Качество: BDRip-AVC
Формат: MKV
Видео кодек: XviD
Аудио кодек: AC3
Видео: 2000 Kbit/s, 1024x576
Аудио: AC3, 2 ch, 192 kbps (andi)
Аудио: AC3, 6 ch, 384 kbps (оригинал)

MI

General
Unique ID : 245931248876584528223671987941355570899 (0xB904A2B9C6504A0D9D1709300BF446D3)
Complete name : E:\KINO\Qiziqchilar\Survivor.2014.L1.Eng.BDRip.AVC_Tas-ix.net.mkv
Format : Matroska
Format version : Version 4 / Version 2
File size : 1.66 GiB
Duration : 1h 33mn
Overall bit rate : 2 552 Kbps
Encoded date : UTC 2010-02-22 21:41:31
Writing application : mkvmerge v5.9.0 ('On The Loose') built on Dec 9 2012 15:37:01
Writing library : libebml v1.3.0 + libmatroska v1.4.0
Video
ID : 1
Format : AVC
Format/Info : Advanced Video Codec
Format profile : [email protected]
Format settings, CABAC : No
Format settings, ReFrames : 1 frame
Muxing mode : Header stripping
Codec ID : V_MPEG4/ISO/AVC
Duration : 1h 33mn
Bit rate : 2 000 Kbps
Width : 1 024 pixels
Height : 576 pixels
Display aspect ratio : 16:9
Frame rate mode : Variable
Frame rate : 23.976 fps
Color space : YUV
Chroma subsampling : 4:2:0
Bit depth : 8 bits
Scan type : Progressive
Bits/(Pixel*Frame) : 0.141
Stream size : 1.25 GiB (75%)
Writing library : x264 core 120
Encoding settings : cabac=0 / ref=1 / deblock=1:0:0 / analyse=0x1:0x111 / me=hex / subme=2 / psy=1 / psy_rd=1.00:0.00 / mixed_ref=0 / me_range=16 / chroma_me=1 / trellis=0 / 8x8dct=0 / cqm=0 / deadzone=21,11 / fast_pskip=1 / chroma_qp_offset=0 / threads=6 / sliced_threads=0 / nr=0 / decimate=1 / interlaced=0 / bluray_compat=0 / constrained_intra=0 / bframes=0 / weightp=0 / keyint=250 / keyint_min=23 / scenecut=40 / intra_refresh=0 / rc_lookahead=10 / rc=abr / mbtree=1 / bitrate=2000 / ratetol=1.0 / qcomp=0.60 / qpmin=0 / qpmax=69 / qpstep=4 / ip_ratio=1.40 / aq=1:1.00
Default : No
Forced : No
Audio #1
ID : 3
Format : AC-3
Format/Info : Audio Coding 3
Mode extension : CM (complete main)
Format settings, Endianness : Big
Muxing mode : Header stripping
Codec ID : A_AC3
Duration : 1h 33mn
Bit rate mode : Constant
Bit rate : 384 Kbps
Channel(s) : 6 channels
Channel positions : Front: L C R, Side: L R, LFE
Sampling rate : 48.0 KHz
Bit depth : 16 bits
Compression mode : Lossy
Stream size : 256 MiB (15%)
Language : English
Default : No
Forced : No
Audio #2
ID : 4
Format : AC-3
Format/Info : Audio Coding 3
Mode extension : CM (complete main)
Format settings, Endianness : Big
Muxing mode : Header stripping
Codec ID : A_AC3
Duration : 1h 33mn
Bit rate mode : Constant
Bit rate : 192 Kbps
Channel(s) : 2 channels
Channel positions : Front: L R
Sampling rate : 48.0 KHz
Bit depth : 16 bits
Compression mode : Lossy
Stream size : 128 MiB (8%)
Language : Russian
Default : Yes
Forced : No
Text
ID : 2
Format : UTF-8
Codec ID : S_TEXT/UTF8
Codec ID/Info : UTF-8 Plain Text
Title : forced
Language : English
Default : No
Forced : No

Скриншоты




Создавать темы 04-Авг-2014 22:46

[Профиль]  [ЛС] 

Slapper

Стаж: 3 года 10 месяцев

Сообщений: 2193

Симпатии: 213

Ошиблись разделом
Вам сюда
HD-AVC

Создавать темы 04-Авг-2014 23:17

[Профиль]  [ЛС] 

Bek19-82 ®

Стаж: 6 лет 2 месяца

Сообщений: 66

Симпатии: 1

862103Ошиблись разделом
Вам сюда
HD-AVC
ойй...извините можете поправит на другом страничку ?

Создавать темы 04-Авг-2014 23:48

[Профиль]  [ЛС] 

Slapper

Стаж: 3 года 10 месяцев

Сообщений: 2193

Симпатии: 213

Bek19-82, нет, не могу, нету прав в данном разделе, просите модераторов Video

Создавать темы 05-Авг-2014 00:10

[Профиль]  [ЛС] 

jaja

Стаж: 6 лет 4 месяца

Сообщений: 20

Симпатии: 1

звук лицензия будет или качать ???

Создавать темы 06-Авг-2014 01:34

[Профиль]  [ЛС] 

Топик был перенесен из форума Фильмы за 2014 (новинки) в форум HD-AVC
СтАсИкОс

Создавать темы 06-Авг-2014 16:32

 

X3JumperRaZ0R

Стаж: 5 лет 2 месяца

Сообщений: 177

Симпатии: 151

По скринам на ТВ3 смахивает!

Создавать темы 03-Сен-2014 23:23

[Профиль]  [ЛС] 
Показать сообщения:    
Ответить на тему

Текущее время: 23-Сен 18:00

Часовой пояс: UTC + 5



Вы не можете начинать темы
Вы не можете отвечать на сообщения
Вы не можете редактировать свои сообщения
Вы не можете удалять свои сообщения
Вы не можете голосовать в опросах
Вы не можете прикреплять файлы к сообщениям
Вы не можете скачивать файлы