Жажда скорости / Need for Speed (Скотт Во / Scott Waugh) [2014 г., боевик, триллер, драма, криминал, BDRip]

Ответить на тему
 

zog ®

Стаж: 4 года 2 месяца

Сообщений: 20

Симпатии: 1

Жажда скорости / Need for Speed
Год выпуска: 2014
Страна: США, Филиппины, Ирландия, Великобритания
Жанр: боевик, триллер, драма, криминал
Продолжительность: 02:10:43
Перевод: Профессиональный (полное дублирование)
Режиссер: Скотт Во / Scott Waugh
В ролях: Аарон Пол, Доминик Купер, Имоджен Путс, Дакота Джонсон, Майкл Китон, Рамон Родригес, Ник Чинланд, Кид Кади, Рэми Малек
Описание: История Тоби Маршалла, гениального автомеханика, чьей единственной отдушиной является участие в подпольных гонках. Чтобы сохранить семейную мастерскую, Тоби вынужден взять в партнеры богатого и заносчивого бывшего гонщика NASCAR Дино Брюстера. Когда дела Тоби наконец-то начинают идти в гору, Дино подставляет партнера, и Тоби обвиняют в преступлении, которого он не совершал. Спустя два года Тоби выходит из тюрьмы с мыслью о мести. Чтобы достичь своей цели, ему придется совершить невозможное и доказать, что даже в мире броских суперкаров самый невзрачный гонщик может финишировать первым.
Качество: BDRip
Формат: MKV
Видео: MPEG4 Video (H264) 1920x804 23.976fps
Аудио: Dolby AC3 48000Hz 6ch 640kbps

Скриншоты

MI

General
Unique ID : 190350993971004969672458128133193575255 (0x8F3444969E7591949DB8EC93EEBDAB57)
Complete name : D:\PAPKAAA))\Need for Speed.2014.BDRip.(1080p) By GT-X.mkv
Format : Matroska
Format version : Version 4 / Version 2
File size : 14.5 GiB
Duration : 2h 10mn
Overall bit rate : 15.9 Mbps
Encoded date : UTC 2014-07-17 05:13:52
Writing application : mkvmerge v7.0.0 ('Where We Going') 64bit built on Jun 9 2014 15:16:27
Writing library : libebml v1.3.0 + libmatroska v1.4.1
Attachment : Yes
Video
ID : 1
Format : AVC
Format/Info : Advanced Video Codec
Format profile : [email protected]
Format settings, CABAC : Yes
Format settings, ReFrames : 5 frames
Codec ID : V_MPEG4/ISO/AVC
Duration : 2h 10mn
Bit rate : 12.9 Mbps
Width : 1 920 pixels
Height : 804 pixels
Display aspect ratio : 2.40:1
Frame rate mode : Constant
Frame rate : 23.976 fps
Color space : YUV
Chroma subsampling : 4:2:0
Bit depth : 8 bits
Scan type : Progressive
Bits/(Pixel*Frame) : 0.348
Stream size : 11.8 GiB (81%)
Title : Need for Speed 2014 1080p BluRay DTS x264-TayTO
Writing library : x264 core 142 r2431kMod ac76440
Encoding settings : cabac=1 / ref=5 / deblock=1:-3:-3 / analyse=0x3:0x133 / me=tesa / subme=11 / psy=1 / fade_compensate=0.00 / psy_rd=1.00:0.00 / mixed_ref=1 / me_range=24 / chroma_me=1 / trellis=2 / 8x8dct=1 / cqm=0 / deadzone=21,11 / fast_pskip=0 / chroma_qp_offset=-2 / threads=12 / lookahead_threads=2 / sliced_threads=0 / nr=0 / decimate=1 / interlaced=0 / bluray_compat=0 / constrained_intra=0 / fgo=0 / bframes=9 / b_pyramid=2 / b_adapt=2 / b_bias=0 / direct=3 / weightb=1 / open_gop=0 / weightp=2 / keyint=250 / keyint_min=23 / scenecut=40 / intra_refresh=0 / rc=crf / mbtree=0 / crf=17.4000 / qcomp=0.65 / qpmin=0 / qpmax=69 / qpstep=4 / ip_ratio=1.30 / pb_ratio=1.20 / aq=1:0.80
Language : English
Default : Yes
Forced : No
Matrix coefficients : BT.709
Audio #1
ID : 2
Format : AC-3
Format/Info : Audio Coding 3
Mode extension : CM (complete main)
Format settings, Endianness : Big
Codec ID : A_AC3
Duration : 2h 10mn
Bit rate mode : Constant
Bit rate : 640 Kbps
Channel(s) : 6 channels
Channel positions : Front: L C R, Side: L R, LFE
Sampling rate : 48.0 KHz
Bit depth : 16 bits
Compression mode : Lossy
Stream size : 599 MiB (4%)
Title : Dub, Blu-ray
Language : Russian
Default : Yes
Forced : No
Audio #2
ID : 3
Format : DTS
Format/Info : Digital Theater Systems
Mode : 16
Format settings, Endianness : Big
Codec ID : A_DTS
Duration : 2h 10mn
Bit rate mode : Constant
Bit rate : 1 509 Kbps
Channel(s) : 6 channels
Channel positions : Front: L C R, Side: L R, LFE
Sampling rate : 48.0 KHz
Bit depth : 24 bits
Compression mode : Lossy
Stream size : 1.38 GiB (10%)
Language : English
Default : No
Forced : No
Audio #3
ID : 4
Format : AC-3
Format/Info : Audio Coding 3
Format profile : Dolby Digital
Mode extension : CM (complete main)
Format settings, Endianness : Big
Codec ID : A_AC3
Duration : 2h 10mn
Bit rate mode : Constant
Bit rate : 320 Kbps
Channel(s) : 2 channels
Channel positions : Front: L R
Sampling rate : 48.0 KHz
Bit depth : 16 bits
Compression mode : Lossy
Stream size : 300 MiB (2%)
Title : Descriptive
Language : English
Default : No
Forced : No
Audio #4
ID : 5
Format : AC-3
Format/Info : Audio Coding 3
Mode extension : CM (complete main)
Format settings, Endianness : Big
Codec ID : A_AC3
Duration : 2h 10mn
Bit rate mode : Constant
Bit rate : 192 Kbps
Channel(s) : 2 channels
Channel positions : Front: L R
Sampling rate : 48.0 KHz
Bit depth : 16 bits
Compression mode : Lossy
Stream size : 180 MiB (1%)
Title : Commentary with Director Scott Waugh and Aaron Paul
Language : English
Default : No
Forced : No
Text #1
ID : 6
Format : UTF-8
Codec ID : S_TEXT/UTF8
Codec ID/Info : UTF-8 Plain Text
Title : forced
Language : Russian
Default : Yes
Forced : No
Text #2
ID : 7
Format : UTF-8
Codec ID : S_TEXT/UTF8
Codec ID/Info : UTF-8 Plain Text
Title : full
Language : Russian
Default : No
Forced : No
Text #3
ID : 8
Format : UTF-8
Codec ID : S_TEXT/UTF8
Codec ID/Info : UTF-8 Plain Text
Language : English
Default : No
Forced : No
Menu
00:00:00.000 : :Monarch
00:03:54.734 : :Race Prep
00:07:49.761 : :Race
00:14:28.034 : :Proposition
00:20:43.534 : :Julia Maddon
00:26:18.160 : :Joyride
00:28:45.974 : :Illegal In The U.S
00:37:46.473 : :Back In The Game
00:42:07.608 : :Taking Her For A Spin
00:50:33.614 : :Attracting Attention
00:56:00.482 : :Hot Pursuit
01:05:09.864 : :Getting The Invite
01:12:09.325 : :Inconvenience Store
01:18:21.030 : :Her Turn Behind The Wheel
01:25:07.144 : :Higher Stakes
01:32:55.653 : :Anita
01:36:38.084 : :Hospital Visit
01:39:49.442 : :De Leon
01:49:47.873 : :The Final Three
01:55:41.685 : :The Finish Line
02:02:22.752 : :End Credits

Создавать темы 04-Авг-2014 23:53

[Профиль]  [ЛС] 

Slapper

Стаж: 3 года 10 месяцев

Сообщений: 2193

Симпатии: 213

zog, не в тот раздел. сюда нужно было

Создавать темы 05-Авг-2014 00:43

[Профиль]  [ЛС] 

zog ®

Стаж: 4 года 2 месяца

Сообщений: 20

Симпатии: 1

соррй незнал

Создавать темы 05-Авг-2014 01:37

[Профиль]  [ЛС] 

Arsenal97

Стаж: 4 года 5 месяцев

Сообщений: 60

а че размер та такой ? bw mg

Создавать темы 05-Авг-2014 16:53

[Профиль]  [ЛС] 

Slapper

Стаж: 3 года 10 месяцев

Сообщений: 2193

Симпатии: 213

Arsenal97, качество хорошее, вот и размер приличный

Создавать темы 05-Авг-2014 17:42

[Профиль]  [ЛС] 

icefrog_ss

Стаж: 5 лет

Сообщений: 69

Симпатии: 3

не стоило париться на счёт качества этого недалёкого фильма, снят наивными америкосами для галочки. Ожидал большего...

Создавать темы 05-Авг-2014 21:32

[Профиль]  [ЛС] 

zog ®

Стаж: 4 года 2 месяца

Сообщений: 20

Симпатии: 1

А когда проверят

Создавать темы 05-Авг-2014 23:13

[Профиль]  [ЛС] 

Slapper

Стаж: 3 года 10 месяцев

Сообщений: 2193

Симпатии: 213

zog, На раздачу сперва встаньте, люди ждут

Создавать темы 05-Авг-2014 23:20

[Профиль]  [ЛС] 

Arsenal97

Стаж: 4 года 5 месяцев

Сообщений: 60

С таким размером 2-3 месяца будем качать ma стопудова

Создавать темы 05-Авг-2014 23:42

[Профиль]  [ЛС] 

zog ®

Стаж: 4 года 2 месяца

Сообщений: 20

Симпатии: 1

на раздачу встал уже давно

Создавать темы 06-Авг-2014 00:15

[Профиль]  [ЛС] 

Xixidok

Стаж: 3 года 7 месяцев

Сообщений: 181

Симпатии: 27

zog, Релизу - самое место вот тут (https://tas-ix.net/viewforum.php?f=183)

Создавать темы 08-Авг-2014 12:16

[Профиль]  [ЛС] 

-DaRk-

Стаж: 5 лет 3 месяца

Сообщений: 55

Симпатии: 1

раздайте ктонибудь аааааа

Создавать темы 30-Авг-2014 17:55

[Профиль]  [ЛС] 

Топик был перенесен из форума Фильмы за 2014 (новинки) в форум Зарубежное кино
Grock

Создавать темы 02-Сен-2014 15:25

 
Показать сообщения:    
Ответить на тему

Текущее время: 22-Сен 14:48

Часовой пояс: UTC + 5



Вы не можете начинать темы
Вы не можете отвечать на сообщения
Вы не можете редактировать свои сообщения
Вы не можете удалять свои сообщения
Вы не можете голосовать в опросах
Вы не можете прикреплять файлы к сообщениям
Вы не можете скачивать файлы