Оборотень / Волчонок / Teen Wolf / Сезон: 4 / Серии: 1-12 из 12 (Рассел Малкэй) [2014, триллер, драма, комедия, HDTVRip] DVO (Alternative Production)

Ответить на тему
 

Mamutov ®

Стаж: 4 года 10 месяцев

Сообщений: 255

Симпатии: 144

-Волчонок / Teen Wolf- -Информация о фильме:
Год выпуска: 2014
Страна: США
Жанр: Ужасы, комедия, триллер, драма
Продолжительность:00:40:00
-Перевод:Любительский (двухголосый закадровый) Alternative Production
Субтитры: нет
-Режиссёр: Рассел Малкэй-В ролях: Тайлер Пози (Скот МакКол), Шели Хенинг (Малия Хейл), Дилан О’Брайэн (Стайлс), Холлэнд Роден (Лидия Мартин), Арден Чо (Кира), Линден Эшби (шерифф Стилински), Тайлер Хёхлин (Дерек Хейл), ДжейАр Борн (Арджент), Мелисса Понцио (Мелисса МакКол)-Описание фильма:
Скотт был просто обычным парнем, пока один укус не изменил его жизнь навсегда. Теперь он изо всех сил пытается понять, кто он и кем он может стать. В нём больше волка чем человека - или всё совсем наоборот? Как бы то ни было, легко не будет. Скотт попытается управлять своими наклонностями, но больше всего он боится, что эти его новые наклонности, в конце концов, начнут управлять им. «Волчонок» - история Скотта, то как он пытается идти по узкой границе между тем, чего он хочет и чего не может не хотеть. Станет ли случившееся с ним благословением? Или это будет проклятие? И как это отразится на его отношениях с Эллисон - девушкой, которую он так любит? Только время покажет, должен ли он принять свои новообретённые способности, или бояться их- Все раздачи сериала -Информация о файле:
Качество: HDTVRip
Формат: AVI
Видео кодек: XviD
Аудио кодек: MP3
Видео:XviD, 720x400, 23.976 fps, 1695 kbps, 0.245 Bit/Pixel
Аудио:MP3, 48 kHz, stereo, 192 kbps
Субтитры: отсутствуют
Релиз

MediaInfo

General
Format : AVI
Format/Info : Audio Video Interleave
File size : 567 MiB
Duration : 41mn 48s
Overall bit rate : 1 897 Kbps
Writing application : MEncoder SVN-r33883(20110719-gcc4.5.2)
Writing library : VirtualDub build 32842/release
Video
ID : 0
Format : MPEG-4 Visual
Format profile : Advanced [email protected]
Format settings, BVOP : Yes
Format settings, QPel : No
Format settings, GMC : No warppoints
Format settings, Matrix : Default (H.263)
Codec ID : XVID
Codec ID/Hint : XviD
Duration : 41mn 48s
Bit rate : 1 695 Kbps
Width : 720 pixels
Height : 400 pixels
Display aspect ratio : 16:9
Frame rate : 23.976 fps
Color space : YUV
Chroma subsampling : 4:2:0
Bit depth : 8 bits
Scan type : Progressive
Compression mode : Lossy
Bits/(Pixel*Frame) : 0.245
Stream size : 507 MiB (89%)
Writing library : XviD 64
Audio
ID : 1
Format : MPEG Audio
Format version : Version 1
Format profile : Layer 3
Mode : Joint stereo
Codec ID : 55
Codec ID/Hint : MP3
Duration : 41mn 48s
Bit rate mode : Constant
Bit rate : 192 Kbps
Channel count : 2 channels
Sampling rate : 48.0 KHz
Compression mode : Lossy
Stream size : 57.4 MiB (10%)
Alignment : Split accross interleaves
Interleave, duration : 42 ms (1.00 video frame)
Interleave, preload duration : 500 ms

Скриншоты

Внимание! Раздача ведётся путём добавления новых серий.

Внимание! Раздача ведётся путём добавления новых серий; при каждом добавлении создётся новый торрент. Чтобы начать докачку новой серии, пользователям необходимо сделать следующее:
  • Остановить скачивание.
  • Удалить старый торрент у себя из клиента (старые серии удалять не надо).
  • Скачать новый торрент и запустить его у себя в клиенте вместо старого, при этом указать клиенту путь в старую папку куда и должно происходить скачивание новых серий.
    Ваш клиент при этом должен произвести хеширование (проверку) старой папки (если не производит сам - помогите ему сделать это), и будет докачивать только те серии которых у вас ещё нет. Старые серии при этом не удаляются, а продолжают раздаваться!
    Eсли вы уже удалили старые серии, то предотвратить повторную закачку старых серий можно, отжав галочку в соответсвующих местах при запуске нового торрента. По возможности, желательно не удалять старые серии как можно дольше чтобы релизёр не столько продолжал раздавать старые серии, а смог сконцентрироваться на новых.


  • Последний раз редактировалось: Mamutov (2014-09-11 07:40), всего редактировалось 3 раз(а)

    Создавать темы 06-Авг-2014 07:56

    [Профиль]  [ЛС] 

    designzor

    Стаж: 4 года 5 месяцев

    Сообщений: 29

    Спасибо за то, что делитесь с нами киношками, Mamutov!
    Ждем продолжения с нетерпением!!)

    Создавать темы 23-Авг-2014 21:33

    [Профиль]  [ЛС] 

    Mamutov ®

    Стаж: 4 года 10 месяцев

    Сообщений: 255

    Симпатии: 144

    добавлено 7-8-9-10 серия

    Создавать темы 02-Сен-2014 08:23

    [Профиль]  [ЛС] 

    Mamutov ®

    Стаж: 4 года 10 месяцев

    Сообщений: 255

    Симпатии: 144

    добавлено 11 серия

    Создавать темы 04-Сен-2014 06:58

    [Профиль]  [ЛС] 

    Mamutov ®

    Стаж: 4 года 10 месяцев

    Сообщений: 255

    Симпатии: 144

    Добавлена 12 (финальная) серияСериал официально продлён на 5-й сезон, в котором будет 20 серий.

    Создавать темы 11-Сен-2014 07:43

    [Профиль]  [ЛС] 

    стена плача

    Стаж: 6 лет 4 месяца

    Сообщений: 5

    раздача будет или 2 недели ждать надо?

    Создавать темы 12-Сен-2014 14:39

    [Профиль]  [ЛС] 

    djfora92

    Стаж: 6 лет 9 месяцев

    Сообщений: 10

    Ребят, не могу скачать, помогите плиз!

    Создавать темы 19-Янв-2016 14:00

    [Профиль]  [ЛС] 

    djfora92

    Стаж: 6 лет 9 месяцев

    Сообщений: 10

    А то сидов 2, а раздачи вообщем нету!

    Создавать темы 19-Янв-2016 14:02

    [Профиль]  [ЛС] 
    Показать сообщения:    
    Ответить на тему

    Текущее время: 19-Ноя 12:00

    Часовой пояс: UTC + 5



    Вы не можете начинать темы
    Вы не можете отвечать на сообщения
    Вы не можете редактировать свои сообщения
    Вы не можете удалять свои сообщения
    Вы не можете голосовать в опросах
    Вы не можете прикреплять файлы к сообщениям
    Вы не можете скачивать файлы