Бессонница / Insomnia (Кристофер Нолан / Christopher Nolan) [2002, США, Канада, Триллер, криминал, детектив, BDRip] Dub

Ответить на тему
 

razor2011 ®

Стаж: 4 года 11 месяцев

Сообщений: 227

Симпатии: 37

Бессонница / Insomnia
«Не закрывай глаза...»- Год выпуска: 2002
Выпущено: США, Канада / Summit Entertainment, Alcon Entertainment
Жанр: триллер, криминал, детектив
Продолжительность: 01:58:13
Перевод: Профессиональный (полное дублирование)
Cубтитры: нет-Режиссер:
Кристофер Нолан / Christopher Nolan-В ролях:
Аль Пачино (Will Dormer), Робин Уильямс (Walter Finch), Хилари Суэнк (Ellie Burr), Мартин Донован (Hap Eckhart), Оливер ’Оли’ Земен (Pilot), Пол Дули (Chief Nyback), Никки Кэтт (Fred Duggar), Ларри Холден (Farrell), Джей Бразо (Francis), Лорни Кардинал (Rich), Джеймс Хатсон (Officer #1)-Описание:
Опытный детектив полиции Лос-Анджелеса Уилл Дормер вместе со своим напарником направлен в маленький городок на Аляске, чтобы расследовать убийство семнадцатилетней девушки. Помощником Дормера также становится проницательный детектив местной полиции Элли Бур.
Расследование продвигается, и скоро у полицейских появляется подозреваемый. Это Уолтер Финч — человек романтического склада характера, ведущий уединенный образ жизни. Напарник Дормера погибает во время одного из полицейских дежурств на пустынном скалистом берегу. Эта случайная смерть лишает Дормера сна. Все больше запутываясь в сетях махинаций Финча, Дормер рискует потерять не только сон этими белыми летними ночами…-IMDB | КиноПоиск |- 
-Качество: BDRip
Формат: AVI
Видео: 720x304 (2.37:1), 23.976 fps, XviD build 73 ~1373 kbps avg, 0.26 bit/pixel
Аудио: 48 kHz, AC3 Dolby Digital, 3/2 (L,C,R,l,r) + LFE ch, ~384.00 kbps avg-

Скриншоты



MediaInfo

General
Complete name                            : D:\Bessonntsa_2002_BDRip_by_Dalemake.avi
Format                                   : AVI
Format/Info                              : Audio Video Interleave
File size                                : 1.46 GiB
Duration                                 : 1h 58mn
Overall bit rate                         : 1 767 Kbps
Writing application                      : VirtualDubMod 1.5.10.3 | www.virtualdub-fr.org || (build 2550/release)
Writing library                          : VirtualDubMod build 2550/release
Video
ID                                       : 0
Format                                   : MPEG-4 Visual
Format profile                           : Advanced [email protected]
Format settings, BVOP                    : 1
Format settings, QPel                    : No
Format settings, GMC                     : No warppoints
Format settings, Matrix                  : Custom
Codec ID                                 : XVID
Codec ID/Hint                            : XviD
Duration                                 : 1h 58mn
Bit rate                                 : 1 373 Kbps
Width                                    : 720 pixels
Height                                   : 304 pixels
Display aspect ratio                     : 2.35:1
Frame rate                               : 23.976 fps
Color space                              : YUV
Chroma subsampling                       : 4:2:0
Bit depth                                : 8 bits
Scan type                                : Progressive
Compression mode                         : Lossy
Bits/(Pixel*Frame)                       : 0.262
Stream size                              : 1.13 GiB (78%)
Writing library                          : XviD 73
Audio
ID                                       : 1
Format                                   : AC-3
Format/Info                              : Audio Coding 3
Mode extension                           : CM (complete main)
Format settings, Endianness              : Big
Codec ID                                 : 2000
Duration                                 : 1h 58mn
Bit rate mode                            : Constant
Bit rate                                 : 384 Kbps
Channel(s)                               : 6 channels
Channel positions                        : Front: L C R, Side: L R, LFE
Sampling rate                            : 48.0 KHz
Bit depth                                : 16 bits
Compression mode                         : Lossy
Stream size                              : 325 MiB (22%)
Alignment                                : Split accross interleaves
Interleave, duration                     : 42 ms (1.00 video frame)
Interleave, preload duration             : 500 ms

Создавать темы 06-Авг-2014 19:40

[Профиль]  [ЛС] 
Показать сообщения:    
Ответить на тему

Текущее время: 23-Авг 09:21

Часовой пояс: UTC + 5



Вы не можете начинать темы
Вы не можете отвечать на сообщения
Вы не можете редактировать свои сообщения
Вы не можете удалять свои сообщения
Вы не можете голосовать в опросах
Вы не можете прикреплять файлы к сообщениям
Вы не можете скачивать файлы