За конец ответишь / Bad Johnson (Хак Ботко / Huck Botko) [2014, США, фэнтези, комедия, WEB-DLRip] MVO

Ответить на тему
 

Suxrob89 ®

Стаж: 7 лет 3 месяца

Сообщений: 933

Симпатии: 564

-За конец ответишь / Bad Johnson- Страна: США
Жанр: фэнтези, комедия
Год выпуска: 2014
Продолжительность: 01:27:37
Перевод: Профессиональный (многоголосый закадровый)
Cубтитры: нет
Оригинальная аудиодорожка: нет-Режиссер: Хак Ботко / Huck Botko-В ролях: Кэм Жиганде, Ник Тун, Джейми Чунг, Кэтерин Каннингэм, Кэйси Таттон, Холли Хоук, Джордж Лако, Джессика Джой, Джеймс Э. Фоли, Эмили Тьюмен-Описание: Харизматичный бабник получает по заслугам — его пенис таинственным образом отделяется от тела и принимает человеческий облик.- -Качество видео: WEB-DLRip
Формат видео: AVI
Видео: 720x400 (1.80:1), 23.976 fps, XviD build 50 ~1839 kbps avg, 0.27 bit/pixel
Аудио: 48 kHz, AC3 Dolby Digital, 2/0 (L,R) ch, ~384 kbps

MediaInfo

General
Complete name : C:\Users\Вика\Desktop\Bad.Johnson.2014.WEB-DLRip.avi
Format : AVI
Format/Info : Audio Video Interleave
File size : 1.37 GiB
Duration : 1h 27mn
Overall bit rate : 2 233 Kbps
Writing application : VirtualDubMod 1.5.10.2 (build 2540/release)
Writing library : VirtualDubMod build 2540/release
Video
ID : 0
Format : MPEG-4 Visual
Format profile : Advanced [email protected]
Format settings, BVOP : Yes
Format settings, QPel : No
Format settings, GMC : No warppoints
Format settings, Matrix : Default (MPEG)
Codec ID : XVID
Codec ID/Hint : XviD
Duration : 1h 27mn
Bit rate : 1 840 Kbps
Width : 720 pixels
Height : 400 pixels
Display aspect ratio : 16:9
Frame rate : 23.976 fps
Color space : YUV
Chroma subsampling : 4:2:0
Bit depth : 8 bits
Scan type : Progressive
Compression mode : Lossy
Bits/(Pixel*Frame) : 0.266
Stream size : 1.13 GiB (82%)
Writing library : XviD 1.2.1 (UTC 2008-12-04)
Audio
ID : 1
Format : AC-3
Format/Info : Audio Coding 3
Mode extension : CM (complete main)
Format settings, Endianness : Big
Codec ID : 2000
Duration : 1h 27mn
Bit rate mode : Constant
Bit rate : 384 Kbps
Channel count : 2 channels
Channel positions : Front: L R
Sampling rate : 48.0 KHz
Bit depth : 16 bits
Compression mode : Lossy
Stream size : 241 MiB (17%)
Alignment : Split accross interleaves
Interleave, duration : 42 ms (1.00 video frame)
Interleave, preload duration : 500 ms

Скриншоты

Создавать темы 06-Авг-2014 20:25

[Профиль]  [ЛС] 

Slapper

Стаж: 4 года

Сообщений: 2193

Симпатии: 213

воо, думаю неплохой фильм, спасибо )

Создавать темы 06-Авг-2014 21:01

[Профиль]  [ЛС] 

Freckled

Стаж: 4 года 4 месяца

Сообщений: 13

Симпатии: 2

такой сюжет уже есть, русское кино(

Создавать темы 06-Авг-2014 23:09

[Профиль]  [ЛС] 

Quality

Стаж: 7 лет 4 месяца

Сообщений: 55

Симпатии: 3

какой бред только не снимут!

Создавать темы 07-Авг-2014 11:35

[Профиль]  [ЛС] 

Tolik4523

Стаж: 5 лет 10 месяцев

Сообщений: 271

Симпатии: 27

862744такой сюжет уже есть, русское кино
Потверждаю

Создавать темы 07-Авг-2014 17:44

[Профиль]  [ЛС] 

safarbek

Стаж: 6 лет 2 месяца

Сообщений: 8

Симпатии: 2

Проста супер

Создавать темы 07-Авг-2014 18:11

[Профиль]  [ЛС] 

tas ix

Стаж: 5 лет 9 месяцев

Сообщений: 105

Симпатии: 24

https://tas-ix.net/viewtopic.php?t=41900
Русская интерпретация. Русская хуже ИМХО.

Создавать темы 08-Авг-2014 11:43

[Профиль]  [ЛС] 

Xixidok

Стаж: 3 года 9 месяцев

Сообщений: 181

Симпатии: 27

Дурной фильм.

Создавать темы 08-Авг-2014 12:17

[Профиль]  [ЛС] 
Показать сообщения:    
Ответить на тему

Текущее время: 20-Ноя 08:39

Часовой пояс: UTC + 5



Вы не можете начинать темы
Вы не можете отвечать на сообщения
Вы не можете редактировать свои сообщения
Вы не можете удалять свои сообщения
Вы не можете голосовать в опросах
Вы не можете прикреплять файлы к сообщениям
Вы не можете скачивать файлы