Толстая тетрадь / A nagy füzet / A nagy fuzet / The Notebook (Янош Сас / János Szász) [2013, Венгрия, Германия, Австрия, Франция, драма, военный, WEB-DLRip]

Ответить на тему
 

Zab ®

Стаж: 6 лет 4 месяца

Сообщений: 476

Симпатии: 424

Толстая тетрадь / A nagy füzet / A nagy fuzet / The Notebook
-Страна: Венгрия, Германия, Австрия, Франция
Жанр: драма, военный
Год выпуска: 2013
Продолжительность: 01:47:44
Перевод: Профессиональный (многоголосый закадровый) -Режиссер: Янош Сас / János Szász
В ролях: Андраш Дьемант, Ласло Дьемант, Гьёндьвер Боньяр, Пирошка Мольнар, Андраш Ретейи, Ульрих Томсен, Оршойя Тот, Янош Держи, Петер Андораи, Миклош Секей Б.-Описание: Экранизация романа Аготы Кристоф, повествующего о жизни двух братьев во время Второй мировой войны.- -качество: WEB-DLRip
формат: AVI
видеокодек: XviD
аудиокодек: AC3
Видео: Xvid 720x304 25fps 1358kbps
Аудио: Dolby AC3 48000Hz 6ch 448kbps

MI

General
Complete name : D:\[Movies]\Tolstaya.tetrad.2013.P.WEB-DLRip.avi
Format : AVI
Format/Info : Audio Video Interleave
File size : 1.37 GiB
Duration : 1h 47mn
Overall bit rate : 1 816 Kbps
Writing application : VirtualDubMod 1.5.10.2 (build 2540/release)
Writing library : VirtualDubMod build 2540/release
Video
ID : 0
Format : MPEG-4 Visual
Format profile : Advanced [email protected]
Format settings, BVOP : 2
Format settings, QPel : No
Format settings, GMC : No warppoints
Format settings, Matrix : Default (MPEG)
Codec ID : XVID
Codec ID/Hint : XviD
Duration : 1h 47mn
Bit rate : 1 359 Kbps
Width : 720 pixels
Height : 304 pixels
Display aspect ratio : 2.35:1
Frame rate : 25.000 fps
Color space : YUV
Chroma subsampling : 4:2:0
Bit depth : 8 bits
Scan type : Progressive
Compression mode : Lossy
Bits/(Pixel*Frame) : 0.248
Stream size : 1.02 GiB (75%)
Writing library : XviD 1.2.1 (UTC 2008-12-04)
Audio
ID : 1
Format : AC-3
Format/Info : Audio Coding 3
Mode extension : CM (complete main)
Format settings, Endianness : Big
Codec ID : 2000
Duration : 1h 47mn
Bit rate mode : Constant
Bit rate : 448 Kbps
Channel(s) : 6 channels
Channel positions : Front: L C R, Side: L R, LFE
Sampling rate : 48.0 KHz
Bit depth : 16 bits
Compression mode : Lossy
Stream size : 345 MiB (25%)
Alignment : Split accross interleaves
Interleave, duration : 40 ms (1.00 video frame)
Interleave, preload duration : 500 ms

Скриншоты



Создавать темы 06-Авг-2014 23:41

[Профиль]  [ЛС] 
Показать сообщения:    
Ответить на тему

Текущее время: 23-Авг 01:44

Часовой пояс: UTC + 5



Вы не можете начинать темы
Вы не можете отвечать на сообщения
Вы не можете редактировать свои сообщения
Вы не можете удалять свои сообщения
Вы не можете голосовать в опросах
Вы не можете прикреплять файлы к сообщениям
Вы не можете скачивать файлы