Поддубный (Глеб Орлов) [2014, Триллер, Россия, Драма, спорт, биография WEB-DLRip]

Ответить на тему
 

Zab ®

Стаж: 6 лет 5 месяцев

Сообщений: 476

Симпатии: 424

Поддубный-«Чемпион чемпионов»- Год выпуска:2014
Страна:Россия
Жанр:Триллер, драма, спорт, биография
Длительность:02:02:37
Перевод:Не требуется-Режиссер:Глеб Орлов-В ролях:
Михаил Пореченков (Иван Поддубный), Дени Лаван (тренер Поддубного), Владимир Ильин (менеджер Поддубного), Юрий Колокольников (менеджер Поддубного), Роман Мадянов, Александр Михайлов (отец Поддубного), Катерина Шпица (возлюбленная Поддубного), Максим Сапрыкин (Ваня Поддубный в детстве), Петр Крылов (Никита Поддубный), Андрей Дебрин (еврей), Владимир Машук (младший из братьев), Арсен Джемилёв (еврей в ломбарде)-Описание:
Его называли Чемпион чемпионов. О силе и волевом характере Поддубного слагали легенды. И в 50 великий борец играючи одолевал молодых атлетов, а вопросах чести и справедливости не знал компромиссов. И лишь любовь смогла уложить Русского Богатыря на обе лопатки...- -Качество:WEB-DLRip
Формат:AVI
Видео кодек: Xvid
Аудио кодек:MP3
Видео: Xvid, 720x304, ~24fps, 2 000 Kbps
Аудио: Dolby AC3, 48000Hz, 6ch, 384kbps
-HD релиз 1080p-

MI

General
Complete name : C:\Users\SAMSUNG\Downloads\Poddubniy..2014..WEBDLRip.2100MB_.avi
Format : AVI
Format/Info : Audio Video Interleave
Format profile : OpenDML
File size : 2.05 GiB
Duration : 2h 2mn
Overall bit rate : 2 396 Kbps
Writing application : VirtualDubMod 1.5.10.3 | www.virtualdub-fr.org || (build 2550/release)
Writing library : VirtualDubMod build 2550/release
Video
ID : 0
Format : MPEG-4 Visual
Format profile : Advanced [email protected]
Format settings, BVOP : Yes
Format settings, QPel : No
Format settings, GMC : No warppoints
Format settings, Matrix : Default (MPEG)
Codec ID : XVID
Codec ID/Hint : XviD
Duration : 2h 2mn
Bit rate : 2 000 Kbps
Width : 720 pixels
Height : 304 pixels
Display aspect ratio : 2.35:1
Frame rate : 24.000 fps
Color space : YUV
Chroma subsampling : 4:2:0
Bit depth : 8 bits
Scan type : Progressive
Compression mode : Lossy
Bits/(Pixel*Frame) : 0.381
Stream size : 1.71 GiB (83%)
Writing library : XviD 1.2.1 (UTC 2008-12-04)
Audio
ID : 1
Format : AC-3
Format/Info : Audio Coding 3
Mode extension : CM (complete main)
Format settings, Endianness : Big
Codec ID : 2000
Duration : 2h 2mn
Bit rate mode : Constant
Bit rate : 384 Kbps
Channel(s) : 6 channels
Channel positions : Front: L C R, Side: L R, LFE
Sampling rate : 48.0 KHz
Bit depth : 16 bits
Compression mode : Lossy
Stream size : 337 MiB (16%)
Alignment : Split accross interleaves
Interleave, duration : 42 ms (1.00 video frame)
Interleave, preload duration : 500 ms
--

Скриншоты



-


Последний раз редактировалось: Zab (2014-08-08 18:17), всего редактировалось 8 раз(а)

Создавать темы 07-Авг-2014 18:07

[Профиль]  [ЛС] 

Топик был перенесен из форума Российское кино в форум Фильмы за 2014 (новинки)
xxxxx

Создавать темы 07-Авг-2014 18:10

 

7761362842

Стаж: 4 года 10 месяцев

Сообщений: 10

Симпатии: 1

я уже скачал от oxo.uz

Создавать темы 07-Авг-2014 22:02

[Профиль]  [ЛС] 

m1ka

Стаж: 4 года 7 месяцев

Сообщений: 15

Блин вообще отличный Фильм! советую всем люблю такие исторические Фильмы! Благодарю Автора!

Создавать темы 08-Авг-2014 15:42

[Профиль]  [ЛС] 

Наурызбек

Стаж: 4 года 5 месяцев

Сообщений: 116

Симпатии: 13

863040я уже скачал от oxo.uz
ей братан ты чё не пиши сайты РУз, если хочеш тихо жить

Создавать темы 08-Авг-2014 18:48

[Профиль]  [ЛС] 

Николай Сенчи

Стаж: 6 лет 10 месяцев

Сообщений: 88

Симпатии: 6

Спасибо за раздачу! Скорость - то, что надо, за два с половиной часа закачал.

Создавать темы 13-Авг-2014 07:54

[Профиль]  [ЛС] 

ravshan-1979

Стаж: 6 лет 2 месяца

Сообщений: 4

Симпатии: 3

фильм так себе капля с моря

Создавать темы 14-Авг-2014 22:53

[Профиль]  [ЛС] 

Evgeny99

Стаж: 6 лет 8 месяцев

Сообщений: 82

Симпатии: 3

Первым делом прочитал книгу потом посмотрел документальный фильм, решил посмотреть сам фильм 30 минут посмотрел и удалил ) хотя книги и документальный фильм интересны.

Создавать темы 16-Авг-2014 10:15

[Профиль]  [ЛС] 

S()me()ne

Стаж: 3 года 7 месяцев

Сообщений: 26

Симпатии: 3

Фильм хорош именно как художественное описание жизни персонажа.Это не док. фильм, по этому не стоит его оценивать с точки зрения достоверности.

Создавать темы 18-Авг-2014 14:57

[Профиль]  [ЛС] 

farrux_93

Стаж: 4 года 8 месяцев

Сообщений: 24

Прошу добавьте новый рос.фильм - Небо падших

Создавать темы 21-Авг-2014 18:34

[Профиль]  [ЛС] 
Показать сообщения:    
Ответить на тему

Текущее время: 24-Сен 17:20

Часовой пояс: UTC + 5



Вы не можете начинать темы
Вы не можете отвечать на сообщения
Вы не можете редактировать свои сообщения
Вы не можете удалять свои сообщения
Вы не можете голосовать в опросах
Вы не можете прикреплять файлы к сообщениям
Вы не можете скачивать файлы