[VIDEO] Ной / Noah (Даррен Аронофски) [2014, драма, приключения, фэнтези, HDRip] [MP4, 640x] DUB (Blu-ray CEE)

Ответить на тему
 

Slapper ®

Стаж: 4 года

Сообщений: 2193

Симпатии: 213

Ной / Noah-«Конец — это только начало»- -Год выпуска: 2014
Страна: США
Жанр: драма, приключения, фэнтези
Продолжительность: 02:17:53
Перевод: Профессиональный (дублированный) Blu-ray CEE
Cубтитры: нет-Режиссер: Даррен Аронофски-В ролях: Рассел Кроу, Дженнифер Коннелли, Рэй Уинстон, Энтони Хопкинс, Эмма Уотсон, Логан Лерман, Дуглас Бут, Ник Нолти, Марк Марголис, Кевин Дюран-Описание: История отца, воина и спасителя Человечества и всего живого на Земле.- -Качество: HDRip (рип с BDRip 720p)
Формат: MP4
Видео кодек: AVC
Аудио кодек: AAC
Видео: AVC at 679 Kbps, 640 x 352 (1.860) at 23.976 fps
Аудио: AAC at 128 Kbps, 2 channels, 48.0 KHz-

ТХ/MediaInfo

General
Complete name                            : G:\Ной (2014) 640х.mp4
Format                                   : MPEG-4
Format profile                           : Base Media
Codec ID                                 : isom
File size                                : 800 MiB
Duration                                 : 2h 17mn
Overall bit rate                         : 812 Kbps
Movie name                               : Noah (2014) [by Alien.09]
Encoded date                             : UTC 2014-07-25 22:14:02
Tagged date                              : UTC 2014-07-25 22:14:02
Writing application                      : XviD4PSP 6.0 / 54.29.105
Video
ID                                       : 1
Format                                   : AVC
Format/Info                              : Advanced Video Codec
Format profile                           : [email protected]
Format settings, CABAC                   : Yes
Format settings, ReFrames                : 3 frames
Codec ID                                 : avc1
Codec ID/Info                            : Advanced Video Coding
Duration                                 : 2h 17mn
Bit rate                                 : 679 Kbps
Width                                    : 640 pixels
Height                                   : 352 pixels
Display aspect ratio                     : 1.85:1
Frame rate mode                          : Constant
Frame rate                               : 23.976 fps
Color space                              : YUV
Chroma subsampling                       : 4:2:0
Bit depth                                : 8 bits
Scan type                                : Progressive
Bits/(Pixel*Frame)                       : 0.126
Stream size                              : 669 MiB (84%)
Writing library                          : x264 core 128 r2216M 198a7ea
Encoding settings                        : cabac=1 / ref=3 / deblock=1:0:0 / analyse=0x1:0x131 / me=hex / subme=7 / psy=1 / psy_rd=1.00:0.20 / mixed_ref=1 / me_range=16 / chroma_me=1 / trellis=1 / 8x8dct=0 / cqm=0 / deadzone=21,11 / fast_pskip=1 / chroma_qp_offset=-3 / threads=4 / lookahead_threads=1 / sliced_threads=0 / nr=0 / decimate=1 / interlaced=0 / bluray_compat=0 / constrained_intra=0 / bframes=3 / b_pyramid=0 / b_adapt=2 / b_bias=0 / direct=3 / weightb=1 / open_gop=0 / weightp=0 / keyint=230 / keyint_min=23 / scenecut=40 / intra_refresh=0 / rc_lookahead=40 / rc=2pass / mbtree=1 / bitrate=679 / ratetol=1.0 / qcomp=0.60 / qpmin=10 / qpmax=51 / qpstep=4 / cplxblur=20.0 / qblur=0.5 / vbv_maxrate=5000 / vbv_bufsize=1835 / nal_hrd=none / ip_ratio=1.40 / aq=1:1.00
Language                                 : English
Encoded date                             : UTC 2014-07-25 22:14:02
Tagged date                              : UTC 2014-07-25 22:14:02
Audio
ID                                       : 2
Format                                   : AAC
Format/Info                              : Advanced Audio Codec
Format profile                           : LC
Codec ID                                 : 40
Duration                                 : 2h 17mn
Bit rate mode                            : Constant
Bit rate                                 : 128 Kbps
Channel(s)                               : 2 channels
Channel positions                        : Front: L R
Sampling rate                            : 48.0 KHz
Compression mode                         : Lossy
Delay relative to video                  : 42ms
Stream size                              : 126 MiB (16%)
Language                                 : Russian
Encoded date                             : UTC 2014-07-25 22:14:02
Tagged date                              : UTC 2014-07-25 22:14:02

Знаете ли Вы, что...

В мае 2014 года Китай присоединился к растущему списку стран, где фильм запрещен к показу. Картина не попала в квоту на разрешенные зарубежные фильмы (34 картины в год), т. к. китайские цензоры не рекомендовали «Ноя» к просмотру по религиозным соображениям.-Во время съемок фильма не использовалось ни одно настоящее животное.-Фильм начали снимать в июле 2012 года на полуострове Дирхолэй, в районе Рейкьявика Фоссвогур, на базальтовых колоннах Рейнисдрангар и в других местах Южной Исландии. Съёмки также проходили в Нью-Йорке, Голливуде и Вашингтоне, Миссисипи. Ноев ковчег был построен в Национальном историческом парке Плантинг Филдс Арборетум в Верхнем Бруклине, Нью-Йорк.-Аронофски предлагал роль Ноя Кристиану Бэйлу и Майклу Фассбендеру, но они оба отказались.
Джулианна Мур рассматривалась на роль, которая в итоге досталась Дженнифер Коннелли.
Лиам Нисон, Лив Шрайбер и Вэл Килмер рассматривались на роль главного злодея.-В марте 2014 года ряд мусульманских стран, таких как Катар, ОАЭ, Иордания и Египет, отказались выдать разрешение на трансляцию фильма в кинотеатрах. Цензоры запретили картину, так как мусульманская традиция не допускает изображений пророков и посланников Аллаха.-Студия Paramount намеревалась перемонтировать картину, чтобы не распугать потенциальных зрителей, однако в итоге в прокат все же решили выпустить режиссерскую версию фильма.-Рассел Кроу пытался с помощью твиттера уговорить папу римского Франциска посмотреть «Ноя», называя картину мощной, завораживающей и вызывающей резонанс. В итоге Франциск пригласил Рассела Кроу в Ватикан на короткую аудиенцию, в ходе которой благословил фильм «Ной». Как заявил Кроу, с учетом многочисленных споров вокруг фильма приглашение в Ватикан было большой честью.-Даррен Аронофски с детства был очарован персонажем Ноя, он представлял его себе как «мрачного, сложного персонажа, который испытывал глубокое чувство вины».-Даррен Аронофски совместно с Эри Хэнделом и канадским писателем Нико Хэнричоном (Niko Henrichon) занимался созданием графического романа ("Noah: For the Cruelty of Men» (2011)) по сценарию фильма.
Сирша Ронан, Белла Хиткот и Дакота Фаннинг рассматривались на роль Илы. Несмотря на то, что Хиткот произвела сильное впечатление во время прослушивания, режиссер изначально видел в этой роли Дакоту Фаннинг, но она вынуждена была покинуть проект из-за несогласованности расписаний съемок. В итоге роль досталась Эмме Уотсон.

Ошибки в фильме

Технологии, необходимые для производства тканей такой структуры, как у персонажей фильма, были недоступны еще в течение нескольких тысяч лет после времен Большого Потопа.-Во времена, когда происходят события фильма, не существовало технологий, позволявших выплавлять сталь такого качества и такого предназначения, как показано в фильме.-Ковчег выдержал удар миллионов тонн воды одновременно со всех сторон (что уже странно), но главный злодей легко прорубил в нем дыру одной рукой.
-

Создавать темы 10-Авг-2014 10:00

[Профиль]  [ЛС] 
Показать сообщения:    
Ответить на тему

Текущее время: 20-Ноя 07:11

Часовой пояс: UTC + 5



Вы не можете начинать темы
Вы не можете отвечать на сообщения
Вы не можете редактировать свои сообщения
Вы не можете удалять свои сообщения
Вы не можете голосовать в опросах
Вы не можете прикреплять файлы к сообщениям
Вы не можете скачивать файлы