Игры разума / Brain Games (3 сезон 10 серий из 10) (Трей Нельсон / Trey Nelson) [2013-2014, Документальный, HDTVRip 720p]

Ответить на тему
 

Zab ®

Стаж: 6 лет 3 месяца

Сообщений: 476

Симпатии: 424

Игры разума
Brain Games

[Сезон: 3] [Серий: 1-10]
-Год выпуска: 2013-2014
Страна: США, National Geographic
Жанр: Документальный
Продолжительность: ~ 00:21:59
Перевод: Профессиональный (дублированный)
Русские субтитры: нет-Режиссер: Трей Нельсон / Trey Nelson-Описание: Программа Игры разума приглашает вас в путешествие в мир интерактивных игр и тестов, которые помогут вам понять, как устроен ваш мозг. По-настоящему умопомрачительные эксперименты протестируют то, как ваш мозг воспринимает окружающий мир. Исследуя внимание, страх, убеждение и принятие решений, Игры разума заставляет вас задуматься о собственном мозге. Ведь именно он делает вас…вами.-качество: HDTVRip (720p)
формат: MP4
Видео: AVC 3081kbps, 1280x720 , 29.97fps
Аудио: AAC , 2 ch, 160kbps
-

А также

Сезон : 1

Список выпусков/серий

01. Живой цвет (In Living Color)
Думаете, яблоко красное, а лист зеленый? Вы удивитесь, когда мы откроем шокирующую правду о том, что цвет - это лишь заблуждение вашего мозга.
02. Законы привлекательности (Laws of Attraction)
С помощью интерактивных игр мы узнаем о законах привлекательности и о том, как наш мозг решает, что для него притягательно, а что нет.
03. Доверься мне (Trust Me)
Что такое "доверие"? Серия забавных интерактивных научных игр показывает, как обрести доверие в нашем ненадежном мире.
04. Битва возрастов (Battle Of The Ages)
Хотите узнать, как работает ваш мозг? Специалисты в области когнитивной науки, нейрофизиологии и психологии объясняют, как мозг воспринимает мир.
05. Стресс-тест (Stress Test)
Узнайте о том, как мозг справляется со стрессом и как стресс влияет на него. От пробок до плачущих детей - может ли стресс быть полезным?
06. Что происходит (Wats Goin On)Вы узнаете, что в мозгу есть встроенное умение ориентироваться. Узнаете как многократно увеличить Вашу пространственную осведомленность.
07. Переучи свой мозг (Retrain Your Brain)
Модернизировать электронику на которую вы полагаетесь на каждый день это легко сделать, но единственная модернизация мозга это гимнастика для ума.
08. Познай своё тело (Mind Your Body)Эта серия посвящена вашему мозгу и телу. Вы увидите, что ваше тело зачастую находится во власти мозга, а мозг поддается на уловки тела. Вы узнаете о секретных связях мозга и тела.
09. Главное - победить (In It To Win It)
Каждый день вы соревнуетесь - с самим собой или с другими. Узнайте, почему ваш мозг заставляет вас хотеть быть лучше других.
10. Следуй за лидером (Follow The Leader)
Всем хочется думать, что они уникальны, но, приятно это вам или нет, во многом ваше поведение зависит от подражания другим.

MediaInfo

[color=green]General
Complete name                            : F:\HDTVRip\01.In Living Color.avi
Format                                   : MPEG-4
Format profile                           : Base Media / Version 2
Codec ID                                 : mp42
File size                                : 294 MiB
Duration                                 : 21mn 15s
Overall bit rate mode                    : Variable
Overall bit rate                         : 1 937 Kbps
Writing application                      : HandBrake 6224svn 2014062901
Video
ID                                       : 1
Format                                   : AVC
Format/Info                              : Advanced Video Codec
Format profile                           : [email protected]
Format settings, CABAC                   : Yes
Format settings, ReFrames                : 4 frames
Codec ID                                 : avc1
Codec ID/Info                            : Advanced Video Coding
Duration                                 : 21mn 15s
Bit rate                                 : 1 770 Kbps
Width                                    : 1 280 pixels
Height                                   : 720 pixels
Display aspect ratio                     : 16:9
Frame rate mode                          : Variable
Frame rate                               : 23.976 fps
Minimum frame rate                       : 11.905 fps
Maximum frame rate                       : 24.390 fps
Color space                              : YUV
Chroma subsampling                       : 4:2:0
Bit depth                                : 8 bits
Scan type                                : Progressive
Bits/(Pixel*Frame)                       : 0.080
Stream size                              : 269 MiB (91%)
Writing library                          : x264 core 142 r2431 ac76440
Encoding settings                        : cabac=1 / ref=1 / deblock=1:0:0 / analyse=0x1:0x111 / me=hex / subme=2 / psy=1 / psy_rd=1.00:0.00 / mixed_ref=0 / me_range=16 / chroma_me=1 / trellis=0 / 8x8dct=0 / cqm=0 / deadzone=21,11 / fast_pskip=1 / chroma_qp_offset=0 / threads=18 / lookahead_threads=5 / sliced_threads=0 / nr=0 / decimate=1 / interlaced=0 / bluray_compat=0 / constrained_intra=0 / bframes=3 / b_pyramid=2 / b_adapt=1 / b_bias=0 / direct=1 / weightb=1 / open_gop=0 / weightp=1 / keyint=240 / keyint_min=24 / scenecut=40 / intra_refresh=0 / rc_lookahead=10 / rc=crf / mbtree=1 / crf=20.0 / qcomp=0.60 / qpmin=0 / qpmax=69 / qpstep=4 / vbv_maxrate=20000 / vbv_bufsize=25000 / crf_max=0.0 / nal_hrd=none / filler=0 / ip_ratio=1.40 / aq=1:1.00
Color primaries                          : BT.709
Transfer characteristics                 : BT.709
Matrix coefficients                      : BT.709
Audio
ID                                       : 2
Format                                   : AAC
Format/Info                              : Advanced Audio Codec
Format profile                           : LC
Codec ID                                 : 40
Duration                                 : 21mn 14s
Bit rate mode                            : Variable
Bit rate                                 : 160 Kbps
Channel(s)                               : 2 channels
Channel positions                        : Front: L R
Sampling rate                            : 48.0 KHz
Compression mode                         : Lossy
Stream size                              : 24.4 MiB (8%)
Language                                 : Russian
[/color]

Скриншоты





Последний раз редактировалось: Zab (2014-11-27 13:27), всего редактировалось 3 раз(а)

Создавать темы 13-Авг-2014 02:26

[Профиль]  [ЛС] 

Zab ®

Стаж: 6 лет 3 месяца

Сообщений: 476

Симпатии: 424

Приятного просмотра

Создавать темы 13-Авг-2014 02:28

[Профиль]  [ЛС] 

Zab ®

Стаж: 6 лет 3 месяца

Сообщений: 476

Симпатии: 424

Создавать темы 13-Авг-2014 02:28

[Профиль]  [ЛС] 

cellular25

Стаж: 5 лет 7 месяцев

Сообщений: 48

либо из-за того что тасикс.нет гнал последние дни, либо еще из-за чего, получил набор битых видео.
Проверьте пожалуйта на работоспособность все серии.

Создавать темы 21-Сен-2014 23:09

[Профиль]  [ЛС] 

stalkiler

Стаж: 5 лет 5 месяцев

Сообщений: 46

действительно первые 8 серий не открываются

Создавать темы 07-Ноя-2014 23:29

[Профиль]  [ЛС] 

mogol

Стаж: 4 года 3 месяца

Сообщений: 21

У меня тоже только последние серии открываются(( Блин и ради этого качал неделю(((

Создавать темы 27-Ноя-2014 12:00

[Профиль]  [ЛС] 

Zab ®

Стаж: 6 лет 3 месяца

Сообщений: 476

Симпатии: 424

Перезалил торрент, попробуйте перекачать!

Создавать темы 27-Ноя-2014 13:33

[Профиль]  [ЛС] 

Abumuslim

Стаж: 4 года 2 месяца

Сообщений: 38

Симпатии: 3

Всем привет! По моему всем док.фильмам и передачам надо дат золото, чтоб все скачали и смотрели. Новым второстепенным сериалам дают золото, а хорошим док.фильмам нет. Может Админи подумают над этим.

Создавать темы 27-Ноя-2014 16:55

[Профиль]  [ЛС] 
Показать сообщения:    
Ответить на тему

Текущее время: 20-Авг 22:25

Часовой пояс: UTC + 5



Вы не можете начинать темы
Вы не можете отвечать на сообщения
Вы не можете редактировать свои сообщения
Вы не можете удалять свои сообщения
Вы не можете голосовать в опросах
Вы не можете прикреплять файлы к сообщениям
Вы не можете скачивать файлы