Бэтмен: Нападение на Аркхэм / Batman: Assault on Arkham (Джей Олива, Этан Сполдинг) [2014, мультфильм, боевик, триллер, криминал, WEB-DL 1080p] MVO + Rus Sub

Ответить на тему
 

Slapper ®

Стаж: 3 года 9 месяцев

Сообщений: 2193

Симпатии: 213

Бэтмен: Нападение на Аркхэм / Batman: Assault on Arkham-«Get ready to root for the bad guys»- Год выпуска: 2014
Страна: США
Жанр: мультфильм, боевик, триллер, криминал
Продолжительность: 01:15:00
Перевод: Любительский (многоголосый закадровый) [Студия Saint Sound]
Субтитры: Русские субтитры Dakota Family Translators-Режиссёр: Джей Олива, Этан Сполдинг-В ролях: Мэттью Грей Гублер, Джанкарло Эспозито, Нил МакДонаф, Джон Ди Маджио, Трой Бэйкер, Нолан Норт, Си Си Эйч Паундер, Кевин Конрой, Хинден Уолш, Дженнифер Хейл-Описание: Секретная правительственная организация формирует спец группу «Суицидальный отряд», состоящую из наемников и убийц, чтобы проникнуть в психиатрическую лечебницу Аркхам и добыть похищенную, засекреченную информацию, из рук заключенного — Эдварда Нигмы «Загадочника».- -Качество: WEB-DL 1080p
Формат: MKV
Видео кодек: AVC
Аудио кодек: AC3
Видео: AVC, 1918x1078, 23.976fps, 4963Kbps
Аудио# 1: AC3, 192 Кбит/сек, 2 channels, 48.0 KHz
Аудио# 2: AC3, 384 Кбит/сек, 6 channels, 48.0 KHz-

MediaInfo

Видео
Идентификатор : 1
Формат : AVC
Формат/Информация : Advanced Video Codec
Профиль формата : [email protected]
Параметр CABAC формата : Да
Параметр ReFrames формата : 4 кадра
Идентификатор кодека : V_MPEG4/ISO/AVC
Продолжительность : 1 ч. 15 м.
Битрейт : 4960 Кбит/сек
Ширина : 1918 пикселей
Высота : 1078 пикселей
Соотношение сторон : 16:9
Режим частоты кадров : Постоянный
Частота кадров : 23,976 кадра/сек
Цветовое пространство : YUV
Субдискретизация насыщенности : 4:2:0
Битовая глубина : 8 бит
Тип развёртки : Прогрессивная
Бит/(Пиксели*Кадры) : 0.100
Размер потока : 2,63 Гбайт (88%)
Default : Да
Forced : Нет
Основные цвета : BT.709
Характеристики трансфера : BT.709
Коэффициенты матрицы : BT.709
Аудио #1
Идентификатор : 2
Формат : AC-3
Формат/Информация : Audio Coding 3
Расширение режима : CM (complete main)
Параметр Endianness формата : Big
Идентификатор кодека : A_AC3
Продолжительность : 1 ч. 15 м.
Вид битрейта : Постоянный
Битрейт : 192 Кбит/сек
Каналы : 2 канала
Расположение каналов : Front: L R
Частота : 48,0 КГц
Битовая глубина : 16 бит
Метод сжатия : С потерями
Размер потока : 104 Мбайт (3%)
Язык : Russian
Default : Да
Forced : Да
Аудио #2
Идентификатор : 3
Формат : AC-3
Формат/Информация : Audio Coding 3
Расширение режима : CM (complete main)
Параметр Endianness формата : Big
Идентификатор кодека : A_AC3
Продолжительность : 1 ч. 15 м.
Вид битрейта : Постоянный
Битрейт : 384 Кбит/сек
Каналы : 6 каналов
Расположение каналов : Front: L C R, Side: L R, LFE
Частота : 48,0 КГц
Битовая глубина : 16 бит
Метод сжатия : С потерями
Размер потока : 208 Мбайт (7%)
Язык : English
Default : Нет
Forced : Нет
Текст
Идентификатор : 4
Формат : UTF-8
Идентификатор кодека : S_TEXT/UTF8
Идентификатор кодека/Информация : UTF-8 Plain Text
Язык : Russian
Default : Да
Forced : Нет
-

Создавать темы 13-Авг-2014 09:30

[Профиль]  [ЛС] 

Страх

Стаж: 3 года 10 месяцев

Сообщений: 1131

Симпатии: 448

на туроне видел) скачаю как приду домой, помогу с раздачей)

Создавать темы 13-Авг-2014 09:59

[Профиль]  [ЛС] 

FoxSage

Стаж: 4 года 1 месяц

Сообщений: 197

Симпатии: 19

СПАСИБО Slapper

Создавать темы 14-Авг-2014 15:56

[Профиль]  [ЛС] 

Zab

Стаж: 6 лет 3 месяца

Сообщений: 476

Симпатии: 424

Slapper, влился в раздачу..

Создавать темы 16-Авг-2014 19:16

[Профиль]  [ЛС] 

ruxa555

Стаж: 3 года 7 месяцев

Сообщений: 3

Ребята, уже более 10 дней не могу скачать, дайте скорости...

Создавать темы 16-Ноя-2014 16:56

[Профиль]  [ЛС] 
Показать сообщения:    
Ответить на тему

Текущее время: 18-Авг 13:56

Часовой пояс: UTC + 5



Вы не можете начинать темы
Вы не можете отвечать на сообщения
Вы не можете редактировать свои сообщения
Вы не можете удалять свои сообщения
Вы не можете голосовать в опросах
Вы не можете прикреплять файлы к сообщениям
Вы не можете скачивать файлы