Сердце льва/ Leijonasydän (Heart of A Lion) ( Доме Карукоски) [2013, драма, мелодрама, HDRip]

Ответить на тему
 

Каротажник ®

Стаж: 4 года 1 месяц

Сообщений: 195

Симпатии: 211

Сердце льва / Leijonasydän (Heart of A Lion)

Год выпуска: 2013
Страна: Финляндия, Швеция
Жанр: драма, мелодрама

Продолжительность: 01:39:19
Перевод: Любительское (одноголосое) [Xixidok]

Режиссёр: Доме Карукоски
в ролях Петер Францен, Лаура Бирн, Яспер Пяякконен, Памела Тола, Юсси Ватанен, Деограсиас Масоми, Микко Неувонен, Лаура Хеймо, Тимо Лавикайнен, Юха Пурсиайнен


Всю жизнь он следовал неонацистским принципам. Как то влюбился в обычную девушку, только сын её оказался чернокожим и теперь он стоит перед тяжелым выбором, ведь фактически он предает свою идеологию...



Качество: HDRip
Формат: AVI

Видео: XVId, 1 718 Kbps, 720x304, 23.976fps
Аудио: MP3, 44100Hz, 192kbps, 2 channels

Media Info

Format/Info : Audio Video Interleave
File size : 1.33 GiB
Duration : 1h 39mn
Overall bit rate : 1 919 Kbps
Writing application : VirtualDubMod 1.5.10.3 (build 2550/release)
Writing library : VirtualDubMod build 2550/release
Video
ID : 0
Format : MPEG-4 Visual
Format profile : [email protected]
Format settings, BVOP : No
Format settings, QPel : No
Format settings, GMC : No warppoints
Format settings, Matrix : Default (H.263)
Codec ID : XVID
Codec ID/Hint : XviD
Duration : 1h 39mn
Bit rate : 1 718 Kbps
Width : 720 pixels
Height : 304 pixels
Display aspect ratio : 2.35:1
Frame rate : 23.976 fps
Color space : YUV
Chroma subsampling : 4:2:0
Bit depth : 8 bits
Scan type : Progressive
Compression mode : Lossy
Bits/(Pixel*Frame) : 0.327
Stream size : 1.19 GiB (90%)
Writing library : XviD 64
Audio
ID : 1
Format : MPEG Audio
Format version : Version 1
Format profile : Layer 3
Codec ID : 55
Codec ID/Hint : MP3
Duration : 1h 39mn
Bit rate mode : Constant
Bit rate : 192 Kbps
Channel count : 2 channels
Sampling rate : 44.1 KHz
Compression mode : Lossy
Stream size : 136 MiB (10%)
Alignment : Split accross interleaves
Interleave, duration : 42 ms (1.00 video frame)
Interleave, preload duration : 500 ms

Скриншоты


Создавать темы 13-Авг-2014 15:12

[Профиль]  [ЛС] 

kralyan

Стаж: 5 лет 2 месяца

Сообщений: 72

Симпатии: 7

Смотрел фильм по Кинохиту или Премьере. Скажу, что фильм не лишён смысла.

Создавать темы 13-Авг-2014 21:33

[Профиль]  [ЛС] 
Показать сообщения:    
Ответить на тему

Текущее время: 18-Ноя 00:28

Часовой пояс: UTC + 5



Вы не можете начинать темы
Вы не можете отвечать на сообщения
Вы не можете редактировать свои сообщения
Вы не можете удалять свои сообщения
Вы не можете голосовать в опросах
Вы не можете прикреплять файлы к сообщениям
Вы не можете скачивать файлы