Пипец 2 / Kick-Ass 2 (Джефф Уодлоу) [2013, боевик, комедия, криминал, WEB-DLRip (рип с 1080p)] iTunes [Лицензия]

Ответить на тему
 

Slapper ®

Стаж: 4 года 1 месяц

Сообщений: 2193

Симпатии: 213

Пипец 2 / Kick-Ass 2-«You Can't Fight Your Destiny»- Год выпуска: 2013
Страна: Великобритания, США, Marv Films
Жанр: Боевик, Комедия, Криминал
Продолжительность: 01:42:55
Перевод: Дублированный [Лицензия]-Режиссер: Джефф Уодлоу-В ролях: Аарон Джонсон, Клои Грэйс Моретц, Кристофер Минц-Плассе, Джим Керри, Ольга Куркулина, Клаудия Ли, Джон Легуизамо, Линдси Фонсека, Дональд Фэйзон, Моррис Честнат, Кларк Дьюк, Линди Бут, Стивен Макинтош, Элла Пернелл, Август Прю, Дэниэл Калуя-Описание: В реальной жизни не встретишь супергероя из комиксов, зато в ней есть настоящие герои. Харизматичный Пипец и гламурная Убивашка обрели новую команду поддержки во главе с Полковником Америка. Но кроме обычных мафиози, над городом нависает новая угроза — молодой мажор с очень дурным характером и целой армией отмороженных наемников.- -Качество: WEB-DLRip (рип с 1080p)
Формат: MKV
Видео кодек: AVC
Аудио кодек: AC3
Видео: 1916x796 23.976fps 4226 Kbps
Аудио: 384 Kbps, 6 channels, 48.0 KHz, rus, Russian DUB @ 384 kbps-

MediaInfo

Video
ID : 1
Format : AVC
Format/Info : Advanced Video Codec
Format profile : [email protected]
Format settings, CABAC : Yes
Format settings, ReFrames : 5 frames
Codec ID : V_MPEG4/ISO/AVC
Duration : 1h 42mn
Bit rate : 4 226 Kbps
Width : 1 916 pixels
Height : 796 pixels
Display aspect ratio : 2.40:1
Frame rate : 23.976 fps
Color space : YUV
Chroma subsampling : 4:2:0
Bit depth : 8 bits
Scan type : Progressive
Bits/(Pixel*Frame) : 0.116
Stream size : 3.04 GiB (90%)
Title : KICK-ASS_2_BLUEBIRD
Language : English
Default : Yes
Forced : No
Color primaries : BT.709-5, BT.1361, IEC 61966-2-4, SMPTE RP177
Transfer characteristics : BT.709-5, BT.1361
Matrix coefficients : BT.709-5, BT.1361, IEC 61966-2-4 709, SMPTE RP177
Audio
ID : 2
Format : AC-3
Format/Info : Audio Coding 3
Mode extension : CM (complete main)
Codec ID : A_AC3
Duration : 1h 42mn
Bit rate mode : Constant
Bit rate : 384 Kbps
Channel(s) : 6 channels
Channel positions : Front: L C R, Side: L R, LFE
Sampling rate : 48.0 KHz
Bit depth : 16 bits
Compression mode : Lossy
Stream size : 283 MiB (8%)
Title : Russian DUB @ 384 kbps
Language : Russian
Default : Yes
Forced : No
Menu
00:00:00.000 : en:00:00:00.000
00:06:00.000 : en:00:06:00.000
00:10:39.000 : en:00:10:39.000
00:14:10.000 : en:00:14:10.000
00:19:13.000 : en:00:19:13.000
00:23:13.000 : en:00:23:13.000
00:30:22.000 : en:00:30:22.000
00:35:27.000 : en:00:35:27.000
00:40:15.000 : en:00:40:15.000
00:45:37.000 : en:00:45:37.000
00:52:37.000 : en:00:52:37.000
00:58:04.000 : en:00:58:04.000
01:00:39.000 : en:01:00:39.000
01:05:40.000 : en:01:05:40.000
01:09:59.000 : en:01:09:59.000
01:15:58.000 : en:01:15:58.000
01:21:07.000 : en:01:21:07.000
01:23:34.000 : en:01:23:34.000
01:33:12.000 : en:01:33:12.000
01:36:37.000 : en:01:36:37.000

Создавать темы 13-Авг-2014 23:27

[Профиль]  [ЛС] 

TaNkIsT

Стаж: 4 года 9 месяцев

Сообщений: 46

Симпатии: 3

раздавай я качаю

Создавать темы 15-Мар-2015 09:34

[Профиль]  [ЛС] 
Показать сообщения:    
Ответить на тему

Текущее время: 13-Дек 06:34

Часовой пояс: UTC + 5



Вы не можете начинать темы
Вы не можете отвечать на сообщения
Вы не можете редактировать свои сообщения
Вы не можете удалять свои сообщения
Вы не можете голосовать в опросах
Вы не можете прикреплять файлы к сообщениям
Вы не можете скачивать файлы