[VIDEO]Annapolis/Поединок(Джастин Лин) [2005 г., Драма, мелоодрама, спорт,Web-Rip, AVI,608х]

Ответить на тему
 

SMaIL ®

Стаж: 3 года 10 месяцев

Сообщений: 740

Симпатии: 233

Annapolis/Поединок
Год выпуска: 2005
Страна: США
Жанр: Драма, мелоодрама, спорт
Режиссер:Джастин Лин
В ролях:Джеймс Франко, Тайриз Гибсон, Джордана Брюстер, Мэка Фоли, Джим Пэррак, Донни Уолберг, Брайан Гудман, Билли Финниган,Кэти Хейн, Джимми Лин
Продолжительность: 1:43:26
Перевод: Одноголосый закадровый
Описание: Пройдя жестокий отбор и конкурс в 42 человека на место, Джейк Хаурд вступает в элитную военно-морскую академию Аннаполис. Но решив, что главные проблемы теперь позади, он сильно ошибся.
Беспощадная муштра, строгая дисциплина и феноменальные учебные и физические нагрузки обрушиваются на него будто каменная плитка. И вдобавок Джейка с первого дня избирает в жертвы злейший офицер академии, лейтенант Коул. Ощутив в нем задатки лидера, он начинает все сильнее давить на кадета, чтобы проверить, не сломается ли тот.
Однако Джейк принимает вызов. Поняв, что единственный способ выжить в аду — завоевать уважение главного черта, он решает принять участие в чемпионате Аннаполиса по боксу, чтобы сойтись в бою со своим мучителем там, где не имеют значение ни звания, ни статус, ни даже сила, а лишь одна воля к победе — на ринге…
Качество: Web-Rip
Формат: AVI
Видео кодек: XviD
Аудио кодек: MP3
Видео: Xvid 608x320 23.976fps 777kbps
Аудио: MPEG Audio Layer 3 48000Hz stereo 160kbps
 

MI

Video #0
    ID : 0
    Format : MPEG-4 Visual
    Format profile : Advanced [email protected]
    Format settings, BVOP : 1
    Format settings, QPel : No
    Format settings, GMC : No warppoints
    Format settings, Matrix : Default (H.263)
    Muxing mode : Packed bitstream
    Codec ID : XVID
    Codec ID/Hint : XviD
    Duration : 1h 43mn
    Bit rate : 778 Kbps
    Width : 608 pixels
    Height : 320 pixels
    Display aspect ratio : 1.900
    Frame rate : 23.976 fps
    Color space : YUV
    Chroma subsampling : 4:2:0
    Bit depth : 8 bits
    Scan type : Progressive
    Compression mode : Lossy
    Bits/(Pixel*Frame) : 0.167
    Stream size : 575 MiB (83%)
    Writing library : XviD 1.1.0 (UTC 2005-11-22)
  Audio #1
    ID : 1
    Format : MPEG Audio
    Format version : Version 1
    Format profile : Layer 3
    Mode : Joint stereo
    Codec ID : 55
    Codec ID/Hint : MP3
    Duration : 1h 40mn
    Bit rate mode : Constant
    Bit rate : 160 Kbps
    Channel(s) : 2 channels
    Sampling rate : 48.0 KHz
    Compression mode : Lossy
    Stream size : 114 MiB (16%)
    Alignment : Aligned on interleaves
    Interleave, duration : 43 ms (1.03 video frame)
    Interleave, preload duration : 504 ms

Скриншоты



Последний раз редактировалось: SMaIL (2014-08-14 12:28), всего редактировалось 2 раз(а)

Создавать темы 14-Авг-2014 10:07

[Профиль]  [ЛС] 

VAIO

Стаж: 5 лет 11 месяцев

Сообщений: 1568

Симпатии: 1399

865126Аннаполис
Проверил ваш релиз, но исправьте шапку по правилам и + разберитесь с названием фильма, фильм называется Аннаполис, а на постере написано поединок или на постере уже с переводом :)


Последний раз редактировалось: VAIO (2015-08-15 20:58), всего редактировалось 1 раз

Создавать темы 14-Авг-2014 10:55

[Профиль]  [ЛС] 

SMaIL ®

Стаж: 3 года 10 месяцев

Сообщений: 740

Симпатии: 233

VAIO, да с переводом снизу посмотрите там написано Annapolis

Создавать темы 14-Авг-2014 11:01

[Профиль]  [ЛС] 

VAIO

Стаж: 5 лет 11 месяцев

Сообщений: 1568

Симпатии: 1399

SMaIL, Гуд, про шапку не забудьте :)


Последний раз редактировалось: VAIO (2015-08-15 20:58), всего редактировалось 1 раз

Создавать темы 14-Авг-2014 11:28

[Профиль]  [ЛС] 

SMaIL ®

Стаж: 3 года 10 месяцев

Сообщений: 740

Симпатии: 233

VAIO, Готово: )

Создавать темы 14-Авг-2014 12:29

[Профиль]  [ЛС] 

SMaIL ®

Стаж: 3 года 10 месяцев

Сообщений: 740

Симпатии: 233

Готово

Создавать темы 14-Авг-2014 15:39

[Профиль]  [ЛС] 

VAIO

Стаж: 5 лет 11 месяцев

Сообщений: 1568

Симпатии: 1399

SMaIL, Ок, понял :)


Последний раз редактировалось: VAIO (2015-08-15 20:58), всего редактировалось 1 раз

Создавать темы 15-Авг-2014 15:20

[Профиль]  [ЛС] 
Показать сообщения:    
Ответить на тему

Текущее время: 18-Дек 12:05

Часовой пояс: UTC + 5



Вы не можете начинать темы
Вы не можете отвечать на сообщения
Вы не можете редактировать свои сообщения
Вы не можете удалять свои сообщения
Вы не можете голосовать в опросах
Вы не можете прикреплять файлы к сообщениям
Вы не можете скачивать файлы