Гоморра / Gomorra / Сезон 1/ Серии 1-12 (12) (2014) HDTVRip от MediaClub | Первый канал

Страницы :  1, 2  След.

Ответить на тему
 

PupuseG ®

Стаж: 4 года 11 месяцев

Сообщений: 514

Симпатии: 64

Гоморра / Gomorra- -Год выпуска: 2014
Страна: США
Жанр: Криминал, Драма
Продолжительность: 55:00
Перевод: Профессиональный многоголосый (Первый канал)-Режиссер: Стефано Соллима, Клаудио Купеллини, Франческа Коменчини
В ролях: Марко Д’Аморе, Фортунато Черлино, Мария Пиа Кальцоне, Сальваторе Эспозито, Марко Палветти, Доменико Бальзамо, Массимильяно Росси, Энзо Сачеттино, Элена Стараче, Антонио Мило-Описание: Сериал "Гоморра" повествует об итальянской мафиозной корпорации несколько веков державшей в страхе весь Неаполь и в какой-то мере контролирующая его до сих пор. Сейчас все еще не оконченна война общества против бандитов и коррумпированных властей и мафиозные разборки здесь не хуже, чем на Сицилии.-Выпущено: Италия, Германия
Студия: Cattleya, Fandango, Sky
Продолжительность: 12 х ~ 00:55:00-Файл
Кодек: XviD
Качество: HDTVRip
Видео: 1500 Кбит/с, 720x384
Звук:
Аудио: Русский (AC3, 2 ch, 192 Кбит/с) / Профессиональный многоголосый (Первый канал)-

MI

General
Complete name : D:\Video\Сериалы\Гоморра (Сезон 1)\Gomorra.S01E01.HDTVRip.Rus.MediaClub.avi
Format : AVI
Format/Info : Audio Video Interleave
File size : 626 MiB
Duration : 51mn 25s
Overall bit rate : 1 702 Kbps
Movie name : Gomorra - Episode 1
Director : MediaClub
Writing application : VirtualDubMod 1.5.10.2 (build 2540/release)
Video
ID : 0
Format : MPEG-4 Visual
Format profile : Advanced [email protected]
Format settings, BVOP : 2
Format settings, QPel : No
Format settings, GMC : No warppoints
Format settings, Matrix : Default (MPEG)
Codec ID : XVID
Codec ID/Hint : XviD
Duration : 51mn 25s
Bit rate : 1 500 Kbps
Width : 720 pixels
Height : 384 pixels
Display aspect ratio : 1.85:1
Frame rate : 25.000 fps
Color space : YUV
Chroma subsampling : 4:2:0
Bit depth : 8 bits
Scan type : Progressive
Compression mode : Lossy
Bits/(Pixel*Frame) : 0.217
Stream size : 552 MiB (88%)
Writing library : XviD 1.2.1 (UTC 2008-12-04)
Audio
ID : 1
Format : AC-3
Format/Info : Audio Coding 3
Mode extension : CM (complete main)
Format settings, Endianness : Big
Codec ID : 2000
Duration : 51mn 25s
Bit rate mode : Constant
Bit rate : 192 Kbps
Channel(s) : 2 channels
Channel positions : Front: L R
Sampling rate : 48.0 KHz
Bit depth : 16 bits
Compression mode : Lossy
Stream size : 70.6 MiB (11%)
Alignment : Split accross interleaves
Interleave, duration : 40 ms (1.00 video frame)
Interleave, preload duration : 500 ms

Скриншоты




Создавать темы 14-Авг-2014 11:39

[Профиль]  [ЛС] 

[email protected]

Стаж: 4 года 11 месяцев

Сообщений: 23

Симпатии: 3

УВАЖАЕМЫЙ РАЗДАЧА БУДЕТ ИЛИ НЕТ?

Создавать темы 26-Авг-2014 15:12

[Профиль]  [ЛС] 

FLV

Стаж: 5 лет 8 месяцев

Сообщений: 49

Симпатии: 3

Присоединяюсь к вопросу.

Создавать темы 26-Авг-2014 18:02

[Профиль]  [ЛС] 

PupuseG ®

Стаж: 4 года 11 месяцев

Сообщений: 514

Симпатии: 64

14 скачавших. Вопрос скорректирован неправильно. Спасибо вот таким людям, которые быстренько убегают после скачивания. Я раздаю ночью в основном до утра, более 10 часов.
Не от меня зависит как вы обмениваетесь между собой, так что пусть остальные ограничения убирают на отдачу и будет вам счастье.
FLV, вроде как один из первых начал качать. Что мешало скачать раньше других?

Создавать темы 26-Авг-2014 20:02

[Профиль]  [ЛС] 

FLV

Стаж: 5 лет 8 месяцев

Сообщений: 49

Симпатии: 3

Да вот хз что мешало. Мегабитный канал почти круглосуточно включен, в основном не занят, другие раздачи сливаются на ура, и отсюда и с др. трекеров. Комнет

Позвал скачавших.

Создавать темы 27-Авг-2014 19:03

[Профиль]  [ЛС] 

FLV

Стаж: 5 лет 8 месяцев

Сообщений: 49

Симпатии: 3

Нашел прямую скачку в тасиксе, забрал от туда последнюю серию.
Автору раздачи спасибо.

Создавать темы 27-Авг-2014 20:27

[Профиль]  [ЛС] 

SuperSerjio

Стаж: 4 года 10 месяцев

Сообщений: 3

скаску

Создавать темы 29-Авг-2014 18:35

[Профиль]  [ЛС] 

marat21

Стаж: 6 лет 7 месяцев

Сообщений: 52

Симпатии: 3

2 сезон будет?

Создавать темы 29-Авг-2014 23:56

[Профиль]  [ЛС] 

FLV

Стаж: 5 лет 8 месяцев

Сообщений: 49

Симпатии: 3

Должен быть. Там не хилая сюжетная завязка оставлена.

Создавать темы 30-Авг-2014 12:17

[Профиль]  [ЛС] 

bbk

Стаж: 6 лет 10 месяцев

Сообщений: 435

Симпатии: 479

Позвал скачавших.
Скачали
renja123, MadlenMigrey, muzaffar0070, sanek-17-65, [email protected] - им придет сообщение, но они и так на раздаче.
остальные скачавшие 15 из 20 не получат сообщения. трекер на вторые третьи сутки "забывает" тех кто не сидирует

Создавать темы 30-Авг-2014 12:57

[Профиль]  [ЛС] 

FLV

Стаж: 5 лет 8 месяцев

Сообщений: 49

Симпатии: 3

Я докачивал недостающие серии с другого сайта в тасиксе с прямым линком. Отсюда устал ждать. Раздача осталась в клиенте просто для поддержки.

Создавать темы 31-Авг-2014 01:37

[Профиль]  [ЛС] 

Furqat_76

Стаж: 5 лет 5 месяцев

Сообщений: 24

Спасибо!!!

Создавать темы 24-Сен-2014 23:37

[Профиль]  [ЛС] 

Bob77

Стаж: 3 года 9 месяцев

Сообщений: 8

PupuseG, автору спасибо

Создавать темы 08-Окт-2014 22:28

[Профиль]  [ЛС] 

marat1204

Стаж: 5 лет 6 месяцев

Сообщений: 4

Раздача будет???

Создавать темы 19-Окт-2014 10:39

[Профиль]  [ЛС] 

niftyman

Стаж: 5 лет 9 месяцев

Сообщений: 42

Дораздайте пожалуйста,ночью тоже нет скорости.

Создавать темы 12-Фев-2015 13:56

[Профиль]  [ЛС] 
Показать сообщения:    
Ответить на тему

Текущее время: 24-Сен 08:08

Часовой пояс: UTC + 5



Вы не можете начинать темы
Вы не можете отвечать на сообщения
Вы не можете редактировать свои сообщения
Вы не можете удалять свои сообщения
Вы не можете голосовать в опросах
Вы не можете прикреплять файлы к сообщениям
Вы не можете скачивать файлы