Смешанные / Blended (Фрэнк Корачи) [2014 г, комедия, WEB-DL 1080p][LINE]

Ответить на тему
 

Страх ®

Стаж: 4 года 2 месяца

Сообщений: 1131

Симпатии: 448

Смешанные / Blended-- Год выпуска: 2014
Страна: США
Жанр: комедия
Продолжительность: 01:57:11
Перевод: Дублированный |Line|
Режиссер: Фрэнк Корачи
В ролях: Адам Сэндлер, Дрю Бэрримор, Кевин Нилон, Терри Крюс, Венди МакЛендон-Кови, Эмма Фурманн, Белла Торн, Брэкстон Бэкхам, Аливия Элин Линд, Джоэл МакХэйл-Описание: После катастрофического свидания «вслепую»  родители-одиночки Лорен и Джим согласны только в одном: они не хотят больше видеть друг друга никогда! Полагая, что их знакомство окончено, обе семьи пользуются удобным случаем и отправляются в идеальный отпуск с детьми. А оказываются в одних и тех же гостиничных апартаментах на роскошном южноафриканском курорте аж на целую неделю.- -Качество: WEB-DL 1080 - LQ profile
Формат: MKV
Видео: MPEG4 Video (H264) 1918x1036 23.976fps
Аудио - Английская дорожка: Dolby AC3 48000Hz 6ch [A: [English]
Аудио - Русская дорожка:Dolby AC3 48000Hz stereo [A: [Russian]
Доп. информация: Дата мировой премьеры: 22 мая 2014
Дата российской премьеры: 19 июня 2014, «Каро-Премьер»
Дата выхода DVD релиза: 4 сентября 2014, «CP Дистрибуция»

Mediainfo

General
Unique ID : 180961303746651553615850657960707755361 (0x8823E11E230DBBEF832E70BDC9340D61)
Complete name : D:\Tracker\Smeshannie.2014.WEB-DL.1080p.mkv
Format : Matroska
Format version : Version 4 / Version 2
File size : 4.88 GiB
Duration : 1h 57mn
Overall bit rate : 5 956 Kbps
Encoded date : UTC 2014-08-13 18:55:09
Writing application : mkvmerge v6.0.0 ('Coming Up For Air') built on Jan 20 2013 09:52:00
Writing library : libebml v1.3.0 + libmatroska v1.4.0
DURATION : 01:57:11.040000000
NUMBER_OF_FRAMES : 219720
NUMBER_OF_BYTES : 337489920
_STATISTICS_WRITING_APP : mkvmerge v7.1.0 ('Good Love') 64bit built on Jul 27 2014 13:06:55
_STATISTICS_WRITING_DATE_UTC : 2014-08-12 06:42:06
_STATISTICS_TAGS : BPS DURATION NUMBER_OF_FRAMES NUMBER_OF_BYTES
Video
ID : 1
Format : AVC
Format/Info : Advanced Video Codec
Format profile : [email protected]
Format settings, CABAC : Yes
Format settings, ReFrames : 4 frames
Codec ID : V_MPEG4/ISO/AVC
Duration : 1h 57mn
Bit rate : 5 070 Kbps
Width : 1 918 pixels
Height : 1 036 pixels
Display aspect ratio : 1.85:1
Frame rate mode : Constant
Frame rate : 23.976 fps
Color space : YUV
Chroma subsampling : 4:2:0
Bit depth : 8 bits
Scan type : Progressive
Bits/(Pixel*Frame) : 0.106
Stream size : 4.15 GiB (85%)
Language : English
Default : Yes
Forced : No
Color primaries : BT.709
Transfer characteristics : BT.709
Matrix coefficients : BT.709
Audio #1
ID : 2
Format : AC-3
Format/Info : Audio Coding 3
Mode extension : CM (complete main)
Format settings, Endianness : Big
Codec ID : A_AC3
Duration : 1h 57mn
Bit rate mode : Constant
Bit rate : 384 Kbps
Channel(s) : 2 channels
Channel positions : Front: L R
Sampling rate : 48.0 KHz
Bit depth : 16 bits
Compression mode : Lossy
Stream size : 322 MiB (6%)
Language : Russian
Default : Yes
Forced : No
Audio #2
ID : 3
Format : AC-3
Format/Info : Audio Coding 3
Mode extension : CM (complete main)
Format settings, Endianness : Big
Codec ID : A_AC3
Duration : 1h 57mn
Bit rate mode : Constant
Bit rate : 384 Kbps
Channel(s) : 6 channels
Channel positions : Front: L C R, Side: L R, LFE
Sampling rate : 48.0 KHz
Bit depth : 16 bits
Compression mode : Lossy
Stream size : 322 MiB (6%)
Language : English
Default : No
Forced : No
Menu
00:00:00.000 : en:1.
00:10:30.000 : en:2.
00:21:12.000 : en:3.
00:32:52.000 : en:4.
00:42:19.000 : en:5.
00:49:44.000 : en:6.
00:58:06.000 : en:7.
01:10:38.000 : en:8.
01:19:38.000 : en:9.
01:33:02.000 : en:10.
01:41:17.000 : en:11.
01:50:27.000 : en:12.

Скриншоты

Создавать темы 14-Авг-2014 16:56

[Профиль]  [ЛС] 

Slapper

Стаж: 4 года 1 месяц

Сообщений: 2193

Симпатии: 213

не в тот раздел, нужно в раздел HD

Создавать темы 14-Авг-2014 17:10

[Профиль]  [ЛС] 

Страх ®

Стаж: 4 года 2 месяца

Сообщений: 1131

Симпатии: 448

Утром до качаете, ок?. Я на ночь никогда не оставляю. с 8 ми утра докачаете. скорость более менее. 3мб на этот релиз идет.

Создавать темы 14-Авг-2014 22:22

[Профиль]  [ЛС] 
Показать сообщения:    
Ответить на тему

Текущее время: 15-Дек 21:05

Часовой пояс: UTC + 5



Вы не можете начинать темы
Вы не можете отвечать на сообщения
Вы не можете редактировать свои сообщения
Вы не можете удалять свои сообщения
Вы не можете голосовать в опросах
Вы не можете прикреплять файлы к сообщениям
Вы не можете скачивать файлы