Иди к черту, Гёте / Fack ju Göhte (Бора Дагтекин) [2013 г., Комедия, HDRip 720p]

Ответить на тему
 

Бахтиер123 ®

Стаж: 5 лет 10 месяцев

Сообщений: 72

Симпатии: 18

Иди к черту, Гёте / Fack ju Göhte
Год выпуска: 2013
Страна: Германия
Жанр: Комедия
Продолжительность: 01:57:08
Перевод: Любительский одноголосый [ViruseProject]
Режиссер: Бора Дагтекин
В ролях: лиас ЭмБарек, Каролина Херфурт, Катя Риман, Яна Палласке, Алвара Хёфельс, Йелла Хаазе, Макс фон Гробен, Анна-Лена Кленке, Гизем Эмре...
Описание: Незадачливый грабитель банков Зеки Мюллер после тринадцати месяцев отсидки выходит из тюрьмы. Он отправляется на поиски награбленной добычи, которая была спрятана на стройке. Вместе с подружкой они думали, что там идёт всего-навсего прокладка труб. Каково же удивление горе-грабителя, когда он обнаруживает на нужном месте новенький школьный спортзал! Чтобы добраться до награбленного, Зеки пытается устроиться на место школьного сторожа. Но в результате лёгкого недопонимания вместо этого его берут в качестве учителя на замену. Ему достаётся самый буйный и ненормальный класс во всей школе — 10 «Б». Используя несколько необычные методы, бывший грабитель неожиданно находит общий язык с учениками. Одновременно с этим по ночам он пытается добраться до спрятанной добычи и влюбляется в коллегу-учительницу Лиси...
Доп. информация: 12+ зрителям, достигшим 12 лет

Бюджет: €6 000 000
Cборы в мире: $78 400 000
Качество: HDRip
Формат: AVI
Видео кодек: XviD
Аудио кодек: AC3
Видео: XviD; 720x304; 1326 Кбит/сек; 24.000 fps
Аудио: AC-3; 48.0 КГц; 384 Кбит/сек; 6-ch;

Media INFO

General
Complete name : D:\Фильмы 09.08.2014\Fack.ju.Goethe.2013.ViruseProject.avi
Format : AVI
Format/Info : Audio Video Interleave
File size : 1.46 GiB
Duration : 1h 57mn
Overall bit rate : 1 789 Kbps
Writing application : VirtualDubMod 1.5.10.2 (build 2540/release)
Writing library : VirtualDubMod build 2540/release
Video
ID : 0
Format : MPEG-4 Visual
Format profile : Advanced [email protected]
Format settings, BVOP : 1
Format settings, QPel : No
Format settings, GMC : No warppoints
Format settings, Matrix : Default (MPEG)
Codec ID : XVID
Codec ID/Hint : XviD
Duration : 1h 57mn
Bit rate : 1 326 Kbps
Width : 720 pixels
Height : 304 pixels
Display aspect ratio : 2.35:1
Frame rate : 24.000 fps
Color space : YUV
Chroma subsampling : 4:2:0
Bit depth : 8 bits
Scan type : Progressive
Compression mode : Lossy
Bits/(Pixel*Frame) : 0.252
Stream size : 1.08 GiB (74%)
Writing library : XviD 1.2.1 (UTC 2008-12-04)
Audio
ID : 1
Format : AC-3
Format/Info : Audio Coding 3
Mode extension : CM (complete main)
Format settings, Endianness : Big
Codec ID : 2000
Duration : 1h 57mn
Bit rate mode : Constant
Bit rate : 384 Kbps
Channel(s) : 6 channels
Channel positions : Front: L C R, Side: L R, LFE
Sampling rate : 48.0 KHz
Bit depth : 16 bits
Compression mode : Lossy
Stream size : 322 MiB (21%)

Alignment : Split accross interleaves

Скриншоты





Последний раз редактировалось: Бахтиер123 (2014-08-15 10:50), всего редактировалось 2 раз(а)

Создавать темы 15-Авг-2014 10:24

[Профиль]  [ЛС] 

Страх

Стаж: 4 года 1 месяц

Сообщений: 1131

Симпатии: 448

Качество: HDRip 720? в заголовок тоже добавьте что это 720

Создавать темы 15-Авг-2014 10:39

[Профиль]  [ЛС] 

Бахтиер123 ®

Стаж: 5 лет 10 месяцев

Сообщений: 72

Симпатии: 18

хорошо щас спс

Создавать темы 15-Авг-2014 10:41

[Профиль]  [ЛС] 

Quality

Стаж: 7 лет 4 месяца

Сообщений: 55

Симпатии: 3

в многоголосом переводе когда ждать?

Создавать темы 15-Авг-2014 11:56

[Профиль]  [ЛС] 

Бахтиер123 ®

Стаж: 5 лет 10 месяцев

Сообщений: 72

Симпатии: 18

Незнаю. Но фильм прикольный

Создавать темы 15-Авг-2014 12:04

[Профиль]  [ЛС] 

djarthur

Стаж: 7 лет

Сообщений: 29

Симпатии: 2

есть немецкая дорожка?

Создавать темы 15-Авг-2014 12:26

[Профиль]  [ЛС] 

Бахтиер123 ®

Стаж: 5 лет 10 месяцев

Сообщений: 72

Симпатии: 18

Нет нету

Создавать темы 15-Авг-2014 13:35

[Профиль]  [ЛС] 

baxa73

Стаж: 3 года 10 месяцев

Сообщений: 198

Симпатии: 7

Фильм супер!

Создавать темы 20-Авг-2014 17:21

[Профиль]  [ЛС] 

axxa

Стаж: 7 лет

Сообщений: 63

Симпатии: 2

Фильм исключительно позитивный! Рекомендую всем!

Создавать темы 25-Авг-2014 15:04

[Профиль]  [ЛС] 
Показать сообщения:    
Ответить на тему

Текущее время: 22-Ноя 08:26

Часовой пояс: UTC + 5



Вы не можете начинать темы
Вы не можете отвечать на сообщения
Вы не можете редактировать свои сообщения
Вы не можете удалять свои сообщения
Вы не можете голосовать в опросах
Вы не можете прикреплять файлы к сообщениям
Вы не можете скачивать файлы