Атомный возраст / L'âge atomique / Atomic age (Элен Клотц / Helena Klotz) [2012, Франция, драма, DVDRip] VO (Кошкин)

Ответить на тему
 

anna140987 ®

Стаж: 4 года 7 месяцев

Сообщений: 97

Симпатии: 12

Атомный возраст / L'âge atomique / Atomic age
Страна: Франция
Жанр: драма
Год выпуска: 2012
Продолжительность: 01:03:48
Перевод: Одноголосый закадровый В. Кошкин; Перевод:Антон Кедров
Cубтитры: нет
Режиссер: Элен Клотц / Helena Klotz
В ролях: Элиотт Паке, Доминик Войчик, Нильс Шнайдер, Матильда Биссон
Описание: Виктор и Райнер типичные молодые французские хипстеры, которые отправляются в Париж, чтобы проводить время в клубах. Виктор мучается желанием подцепить какую-нибудь девушку, в то время как Райнер думает совсем о другом.
Сэмпл: http://multi-up.com/986760
Качество видео: DVDRip
Формат видео: AVI
Видео: Xvid 640x352 25fps 1387kbps (by KG)
Аудио: MP3 48000Hz stereo 224kbps

MediaInfo

General
Complete name : F:\Temp\Atomic age.avi
Format : AVI
Format/Info : Audio Video Interleave
File size : 740 MiB
Duration : 1h 3mn
Overall bit rate : 1 621 Kbps
Writing application : VirtualDubMod 1.5.10.2 (build 2540/release)
Writing library : VirtualDubMod build 2540/release
Video
ID : 0
Format : MPEG-4 Visual
Format profile : Advanced [email protected]
Format settings, BVOP : Yes
Format settings, QPel : No
Format settings, GMC : No warppoints
Format settings, Matrix : Default (H.263)
Codec ID : XVID
Codec ID/Hint : XviD
Duration : 1h 3mn
Bit rate : 1 387 Kbps
Width : 640 pixels
Height : 352 pixels
Display aspect ratio : 16:9
Frame rate : 25.000 fps
Color space : YUV
Chroma subsampling : 4:2:0
Bit depth : 8 bits
Scan type : Progressive
Compression mode : Lossy
Bits/(Pixel*Frame) : 0.246
Stream size : 633 MiB (86%)
Writing library : XviD 64
Audio
ID : 1
Format : MPEG Audio
Format version : Version 1
Format profile : Layer 3
Mode : Joint stereo
Codec ID : 55
Codec ID/Hint : MP3
Duration : 1h 3mn
Bit rate mode : Constant
Bit rate : 224 Kbps
Channel(s) : 2 channels
Sampling rate : 48.0 KHz
Compression mode : Lossy
Stream size : 102 MiB (14%)
Alignment : Aligned on interleaves
Interleave, duration : 40 ms (1.00 video frame)
Interleave, preload duration : 504 ms

Скриншоты

Создавать темы 15-Авг-2014 15:05

[Профиль]  [ЛС] 
Показать сообщения:    
Ответить на тему

Текущее время: 22-Авг 06:33

Часовой пояс: UTC + 5



Вы не можете начинать темы
Вы не можете отвечать на сообщения
Вы не можете редактировать свои сообщения
Вы не можете удалять свои сообщения
Вы не можете голосовать в опросах
Вы не можете прикреплять файлы к сообщениям
Вы не можете скачивать файлы