Путь в Палому (Дорога к дому) / Road to Paloma (Джейсон Момоа / Jason Momoa) [2014 г., Мелодрама, драма, фантастика, BDRip-AVC]

Ответить на тему
 

Бахтиер123 ®

Стаж: 5 лет 10 месяцев

Сообщений: 72

Симпатии: 18

Путь в Палому (Дорога к дому) / Road to Paloma
Год выпуска: 2014
Страна: США
Жанр: Мелодрама, драма, фантастика
Продолжительность: 01:30:28
Перевод: Любительский (одноголосый) (Хихикающий доктор)
Оригинальная аудиодорожка: Английский
Cубтитры: Английские
Режиссер: Джейсон Момоа / Jason Momoa
В ролях: Ти Александр, Генри Элис, Лиза Боне, Крис Браунинг, Чарльз Брумбли, Линден Чайлз, Лэнс Хенриксен, Роберт Гомер Моллохан, Джейсон Момоа
Описание: Коренной американец Роберт Вулф решает сам разобраться с подонками изнасиловавшими и убившими его мать. И естественно, решив совершить самосуд, он стал мишенью для ФБР и вынужден скрываться.
Качество: BDRip-AVC
Формат: AVI
Видео кодек: XviD
Аудио кодек: AC3
Видео: MPEG-4 AVC / 1024x426 / 1507 kbps
Аудио1: Русский/ AC3 6 ch / 48 KHz / 448 kbps |ЛО|
Аудио2:Английский / AC3 6 ch / 48 KHz / 448 kbps |Original|

Media Info

Формат : Matroska
Версия формата : Version 2
Размер файла : 1,52 Гбайт
Продолжительность : 1 ч. 30 м.
Общий поток : 2405 Кбит/сек
Название фильма : Road to Paloma from ExKinoRay
Дата кодирования : UTC 2014-08-13 02:02:49
Программа кодирования : mkvmerge v4.9.1 ('Ich will') built on Jul 11 2011 23:53:15
Библиотека кодирования : libebml v1.2.1 + libmatroska v1.1.1
Видео
Идентификатор : 1
Формат : AVC
Формат/Информация : Advanced Video Codec
Профиль формата : [email protected]
Параметр CABAC формата : Да
Параметр ReFrames формата : 9 кадров
Идентификатор кодека : V_MPEG4/ISO/AVC
Продолжительность : 1 ч. 30 м.
Битрейт : 1507 Кбит/сек
Ширина : 1024 пикселя
Высота : 426 пикселей
Соотношение сторон : 2,40:1
Режим частоты кадров : Постоянный
Частота кадров : 23,976 кадра/сек
Цветовое пространство : YUV
Субдискретизация насыщенности : 4:2:0
Битовая глубина : 8 бит
Тип развёртки : Прогрессивная
Бит/(Пиксели*Кадры) : 0.144
Размер потока : 945 Мбайт (61%)
Заголовок : Enigma-Vladislav71
Библиотека кодирования : x264 core 116 r2044 392e762
Настройки программы : cabac=1 / ref=9 / deblock=1:-2:-2 / analyse=0x3:0x113 / me=umh / subme=10 / psy=1 / psy_rd=1.00:0.20 / mixed_ref=1 / me_range=32 / chroma_me=1 / trellis=2 / 8x8dct=1 / cqm=0 / deadzone=21,11 / fast_pskip=0 / chroma_qp_offset=-3 / threads=12 / sliced_threads=0 / nr=0 / decimate=0 / interlaced=0 / bluray_compat=0 / constrained_intra=0 / bframes=9 / b_pyramid=2 / b_adapt=2 / b_bias=0 / direct=3 / weightb=1 / open_gop=0 / weightp=2 / keyint=240 / keyint_min=23 / scenecut=40 / intra_refresh=0 / rc=2pass / mbtree=0 / bitrate=1507 / ratetol=1.0 / qcomp=0.60 / qpmin=0 / qpmax=69 / qpstep=4 / cplxblur=20.0 / qblur=0.5 / ip_ratio=1.40 / pb_ratio=1.30 / aq=1:1.00
Default : Да
Forced : Нет
Аудио #1
Идентификатор : 2
Формат : AC-3
Формат/Информация : Audio Coding 3
Расширение режима : CM (complete main)
Параметр Endianness формата : Big
Идентификатор кодека : A_AC3
Продолжительность : 1 ч. 30 м.
Вид битрейта : Постоянный
Битрейт : 448 Кбит/сек
Каналы : 6 каналов
Расположение каналов : Front: L C R, Side: L R, LFE
Частота : 48,0 КГц
Битовая глубина : 16 бит
Метод сжатия : С потерями
Размер потока : 290 Мбайт (19%)
Заголовок : hihidok
Язык : Russian
Default : Да
Forced : Нет
Аудио #2
Идентификатор : 3
Формат : AC-3
Формат/Информация : Audio Coding 3
Расширение режима : CM (complete main)
Параметр Endianness формата : Big
Идентификатор кодека : A_AC3
Продолжительность : 1 ч. 30 м.
Вид битрейта : Постоянный
Битрейт : 448 Кбит/сек
Каналы : 6 каналов
Расположение каналов : Front: L C R, Side: L R, LFE
Частота : 48,0 КГц
Битовая глубина : 16 бит
Метод сжатия : С потерями
Размер потока : 290 Мбайт (19%)
Язык : English
Default : Нет
Forced : Нет
Текст #1
Идентификатор : 4
Формат : UTF-8
Идентификатор кодека : S_TEXT/UTF8
Идентификатор кодека/Информация : UTF-8 Plain Text
Заголовок : Full
Язык : English
Default : Нет
Forced : Нет
Текст #2
Идентификатор : 5
Формат : UTF-8
Идентификатор кодека : S_TEXT/UTF8
Идентификатор кодека/Информация : UTF-8 Plain Text
Заголовок : SDH
Язык : English
Default : Нет
Forced : Нет
Текст #3
Идентификатор : 6
Формат : UTF-8
Идентификатор кодека : S_TEXT/UTF8
Идентификатор кодека/Информация : UTF-8 Plain Text
Заголовок : SDH-Colored
Язык : English
Default : Нет
Forced : Нет

Скриншоты



Создавать темы 15-Авг-2014 19:50

[Профиль]  [ЛС] 
Показать сообщения:    
Ответить на тему

Текущее время: 20-Ноя 02:23

Часовой пояс: UTC + 5



Вы не можете начинать темы
Вы не можете отвечать на сообщения
Вы не можете редактировать свои сообщения
Вы не можете удалять свои сообщения
Вы не можете голосовать в опросах
Вы не можете прикреплять файлы к сообщениям
Вы не можете скачивать файлы