Соседи. На тропе войны / Neighbors (Николас Столлер / Nicholas Stoller) [2014 г., Комедия, WEB-DL 1080p]

Ответить на тему
 

farid8898 ®

Стаж: 4 года 1 месяц

Сообщений: 18

Симпатии: 7

Соседи. На тропе войны / Neighbors
«Семейные против студентов»
Год выпуска: 2014
Страна: США
Жанр: Комедия
Продолжительность: 01:36:44
Перевод: Профессиональный (полное дублирование) [Чистый звук]
Оригинальная дорожка: английский
Cубтитры:нет
Режиссер: Николас Столлер / Nicholas Stoller
В ролях: Сет Роген, Зак Эфрон, Роуз Бирн, Элиз Варгас, Зоя Варгас, Брайан Хаски, Айк Баринхолц, Карла Галло, Дэйв Франко, Хелстон Сейдж
Описание: Как известно, мужчины бывают двух типов: холостые и глубоко женатые. Первые молоды, мускулисты и точно магнит притягивают блондинок и шумных друзей. Вторые обитают дома, выращивают детей и поглощают сериалы по телеку. Обычно их пути не пересекаются. Но стоит им стать соседями, мужчины выходят на тропу войны.
Качество: WEB-DL 1080p
Формат: MKV
Видео: MPEG-4 AVC / 3860 Кбит/с, 1916x796 / 23,976 кадра/сек
Аудио: Русский AC3 2 ch / 384 Кбит/с / 48КГц |Дубляж|
Аудио: Английский / AC3 6ch / 48 KHz / 384 kbps |Original|

Скриншоты



MediaInfo

Формат : Matroska
Версия формата : Version 4 / Version 2
Размер файла : 3,19 Гбайт
Продолжительность : 1 ч. 36 м.
Общий поток : 4722 Кбит/сек
Дата кодирования : UTC 2014-08-13 08:44:50
Программа кодирования : mkvmerge v6.9.1 ('Blue Panther') 64bit built on Apr 18 2014 18:23:38
Библиотека кодирования : libebml v1.3.0 + libmatroska v1.4.1
Видео
Идентификатор : 1
Формат : AVC
Формат/Информация : Advanced Video Codec
Профиль формата : [email protected]
Параметр CABAC формата : Да
Параметр ReFrames формата : 5 кадров
Идентификатор кодека : V_MPEG4/ISO/AVC
Продолжительность : 1 ч. 36 м.
Битрейт : 3860 Кбит/сек
Ширина : 1916 пикселей
Высота : 796 пикселей
Соотношение сторон : 2,40:1
Режим частоты кадров : Постоянный
Частота кадров : 23,976 кадра/сек
Цветовое пространство : YUV
Субдискретизация насыщенности : 4:2:0
Битовая глубина : 8 бит
Тип развёртки : Прогрессивная
Бит/(Пиксели*Кадры) : 0.106
Размер потока : 2,61 Гбайт (82%)
Язык : English
Default : Да
Forced : Нет
Основные цвета : BT.709
Характеристики трансфера : BT.709
Коэффициенты матрицы : BT.709
Аудио #1
Идентификатор : 2
Формат : AC-3
Формат/Информация : Audio Coding 3
Расширение режима : CM (complete main)
Параметр Endianness формата : Big
Идентификатор кодека : A_AC3
Продолжительность : 1 ч. 36 м.
Вид битрейта : Постоянный
Битрейт : 384 Кбит/сек
Каналы : 2 канала
Расположение каналов : Front: L R
Частота : 48,0 КГц
Битовая глубина : 16 бит
Метод сжатия : С потерями
Размер потока : 266 Мбайт (8%)
Язык : Russian
Default : Да
Forced : Нет
Аудио #2
Идентификатор : 3
Формат : AC-3
Формат/Информация : Audio Coding 3
Расширение режима : CM (complete main)
Параметр Endianness формата : Big
Идентификатор кодека : A_AC3
Продолжительность : 1 ч. 36 м.
Вид битрейта : Постоянный
Битрейт : 384 Кбит/сек
Каналы : 6 каналов
Расположение каналов : Front: L C R, Side: L R, LFE
Частота : 48,0 КГц
Битовая глубина : 16 бит
Метод сжатия : С потерями
Размер потока : 266 Мбайт (8%)
Язык : English
Default : Нет
Forced : Нет
Меню
00:00:00.000 : en:1
00:05:28.000 : en:2
00:08:44.000 : en:3
00:12:31.000 : en:4
00:17:34.000 : en:5
00:22:20.000 : en:6
00:25:36.000 : en:7
00:30:51.000 : en:8
00:35:12.000 : en:9
00:41:18.000 : en:10
00:46:16.000 : en:11
00:49:25.000 : en:12
00:54:17.000 : en:13
01:00:20.000 : en:14
01:04:49.000 : en:15
01:10:19.000 : en:16
01:14:25.000 : en:17
01:18:38.000 : en:18
01:26:17.000 : en:19
01:31:08.000 : en:20

Создавать темы 16-Авг-2014 09:06

[Профиль]  [ЛС] 
Показать сообщения:    
Ответить на тему

Текущее время: 19-Ноя 00:40

Часовой пояс: UTC + 5



Вы не можете начинать темы
Вы не можете отвечать на сообщения
Вы не можете редактировать свои сообщения
Вы не можете удалять свои сообщения
Вы не можете голосовать в опросах
Вы не можете прикреплять файлы к сообщениям
Вы не можете скачивать файлы