Побеждая время / Hours (Джон Карни) [2013, США, триллер, драма, HDRip-AVC][Лицензия]

Ответить на тему
 

Suxrob89 ®

Стаж: 7 лет 2 месяца

Сообщений: 933

Симпатии: 564

-Побеждая время / Hours- Страна: США / Hours Capital, Palm-Star Entertainment, Safran Company, The
Год выпуска: 2013
Жанр: триллер, драма
Продолжительность: 01:37:00
Перевод: Профессиональный (многоголосый)[Лицензия]
Cубтитры: нет
Оригинальная аудиодорожка: нет-Режиссер: Эрик Хайссерер / Eric Heisserer-В ролях: Пол Уокер, Дженезис Родригез, Нэнси Нейв, Шэйн Якобсен, Наталия Ярожик, Тиджей Хассан, Лена Кларк, Кеша Баллард, Йоханс Майлс, Джудд Лорманд...-Описание: Новый Орлеан. Август 2005-го. Смертоносная «Катрина» сметает все на своем пути. Отец изо всех сил пытается спасти свою дочь. Он понимает, что справиться со стихией, остановить беспощадный ураган не в его силах. На спасение дочери остаются считанные часы…- -Качество: HDRip-AVC / Hours.2013.1080p.BluRay.DTS.x264-PublicHD + DVD5 R5 от "Paradise"
Формат: MKV
Видео: 1024x428 (2.40:1), MPEG-4 AVC 1763 Кбит/сек / 23.976 fps / Бит/(Пиксели*Кадры) : 0.168
Аудио: Dolby Digital Audio Russian 384 kbps 5.1 / 48 kHz / 448 kbps
Дополнительно: Фильм разбит на главы, как на оригинальном BLU-ray диске

MediaInfo

Общее
Полное имя : Pobejdaya.vremya.2013.D.HDRip-AVC.mkv
Формат : Matroska
Версия формата : Version 4 / Version 2
Размер файла : 1,45 Гбайт
Продолжительность : 1 ч. 37 м.
Общий поток : 2146 Кбит/сек
Дата кодирования : UTC 2014-08-16 06:47:45
Программа кодирования : mkvmerge v7.1.0 ('Good Love') 64bit built on Jul 27 2014 13:06:55
Библиотека кодирования : libebml v1.3.0 + libmatroska v1.4.1
DURATION : 01:37:04.160000000
NUMBER_OF_FRAMES : 182005
NUMBER_OF_BYTES : 279559680
_STATISTICS_WRITING_APP : mkvmerge v7.1.0 ('Good Love') 64bit built on Jul 27 2014 13:06:55
_STATISTICS_WRITING_DATE_UTC : 2014-08-16 06:47:45
_STATISTICS_TAGS : BPS DURATION NUMBER_OF_FRAMES NUMBER_OF_BYTES
Видео
Идентификатор : 1
Формат : AVC
Формат/Информация : Advanced Video Codec
Профиль формата : [email protected]
Параметр CABAC формата : Да
Параметр ReFrames формата : 8 кадров
Идентификатор кодека : V_MPEG4/ISO/AVC
Продолжительность : 1 ч. 37 м.
Битрейт : 1763 Кбит/сек
Ширина : 1024 пикселя
Высота : 428 пикселей
Соотношение сторон : 2,40:1
Режим частоты кадров : Постоянный
Частота кадров : 23,976 кадра/сек
Цветовое пространство : YUV
Субдискретизация насыщенности : 4:2:0
Битовая глубина : 8 бит
Тип развёртки : Прогрессивная
Бит/(Пиксели*Кадры) : 0.168
Размер потока : 1,17 Гбайт (80%)
Библиотека кодирования : x264 core 138 r2356 a1d3d17
Настройки программы : cabac=1 / ref=8 / deblock=1:-3:-2 / analyse=0x3:0x113 / me=umh / subme=10 / psy=1 / psy_rd=1.00:0.05 / mixed_ref=1 / me_range=32 / chroma_me=1 / trellis=2 / 8x8dct=1 / cqm=0 / deadzone=21,11 / fast_pskip=0 / chroma_qp_offset=-3 / threads=9 / lookahead_threads=1 / sliced_threads=0 / nr=0 / decimate=0 / interlaced=0 / bluray_compat=0 / constrained_intra=0 / bframes=8 / b_pyramid=2 / b_adapt=2 / b_bias=0 / direct=3 / weightb=1 / open_gop=0 / weightp=2 / keyint=240 / keyint_min=24 / scenecut=40 / intra_refresh=0 / rc_lookahead=40 / rc=2pass / mbtree=1 / bitrate=1763 / ratetol=1.0 / qcomp=0.60 / qpmin=0 / qpmax=69 / qpstep=4 / cplxblur=20.0 / qblur=0.5 / ip_ratio=1.40 / aq=1:1.00
Язык : English
Default : Да
Forced : Нет
DURATION : 01:36:59.814000000
NUMBER_OF_FRAMES : 139536
NUMBER_OF_BYTES : 1281347277
_STATISTICS_WRITING_APP : mkvmerge v7.1.0 ('Good Love') 64bit built on Jul 27 2014 13:06:55
_STATISTICS_WRITING_DATE_UTC : 2014-08-16 06:47:45
_STATISTICS_TAGS : BPS DURATION NUMBER_OF_FRAMES NUMBER_OF_BYTES
Аудио
Идентификатор : 2
Формат : AC-3
Формат/Информация : Audio Coding 3
Расширение режима : CM (complete main)
Параметр Endianness формата : Big
Идентификатор кодека : A_AC3
Продолжительность : 1 ч. 37 м.
Вид битрейта : Постоянный
Битрейт : 384 Кбит/сек
Каналы : 6 каналов
Расположение каналов : Front: L C R, Side: L R, LFE
Частота : 48,0 КГц
Битовая глубина : 16 бит
Метод сжатия : С потерями
Размер потока : 267 Мбайт (18%)
Язык : Russian
Default : Да
Forced : Нет
Меню
00:00:00.000 : en:00:00:00.000
00:07:04.591 : en:00:07:04.591
00:15:39.230 : en:00:15:39.230
00:23:37.166 : en:00:23:37.166
00:32:11.429 : en:00:32:11.429
00:40:26.424 : en:00:40:26.424
00:49:04.525 : en:00:49:04.525
00:56:11.368 : en:00:56:11.368
01:04:57.268 : en:01:04:57.268
01:14:31.926 : en:01:14:31.926
01:23:40.432 : en:01:23:40.432
01:32:41.139 : en:01:32:41.139

Скриншоты

Создавать темы 17-Авг-2014 13:25

[Профиль]  [ЛС] 

farik9193

Стаж: 4 года 11 месяцев

Сообщений: 501

Симпатии: 47

Пол Уокер даже после смерти снимается в фильмах О_о

Создавать темы 17-Авг-2014 14:36

[Профиль]  [ЛС] 

xmn

Стаж: 4 года 2 месяца

Сообщений: 11

866466Пол Уокер даже после смерти снимается в фильмах О_о
Год выпуска: 2013

Создавать темы 17-Авг-2014 16:03

[Профиль]  [ЛС] 

Heroes

Стаж: 5 лет 8 месяцев

Сообщений: 148

Симпатии: 3

а фильм-то как ?

Создавать темы 17-Авг-2014 16:18

[Профиль]  [ЛС] 

Boburchik

Стаж: 3 года 11 месяцев

Сообщений: 19

Симпатии: 2

866466Пол Уокер даже после смерти снимается в фильмах О_о
ТУПОЙ прикол

Создавать темы 19-Авг-2014 10:21

[Профиль]  [ЛС] 

farik9193

Стаж: 4 года 11 месяцев

Сообщений: 501

Симпатии: 47

867049
866466Пол Уокер даже после смерти снимается в фильмах О_о
ТУПОЙ прикол
Да ты что О_о

Создавать темы 23-Авг-2014 21:36

[Профиль]  [ЛС] 

Mehti

Стаж: 5 лет 5 месяцев

Сообщений: 140

Симпатии: 17

farik9193, это же Голливуд!

Создавать темы 07-Окт-2014 13:19

[Профиль]  [ЛС] 
Показать сообщения:    
Ответить на тему

Текущее время: 24-Окт 01:28

Часовой пояс: UTC + 5



Вы не можете начинать темы
Вы не можете отвечать на сообщения
Вы не можете редактировать свои сообщения
Вы не можете удалять свои сообщения
Вы не можете голосовать в опросах
Вы не можете прикреплять файлы к сообщениям
Вы не можете скачивать файлы