Галлоуз Хилл / Gallows Hill / The Damned (Виктор Гарсия) [2013 г., Ужасы, Триллер, Детектив, WEB-DLRip 720 ]

Ответить на тему
 

Бахтиер123 ®

Стаж: 5 лет 10 месяцев

Сообщений: 72

Симпатии: 18

Галлоуз Хилл / Gallows Hill / The Damned

Год выпуска: 2013
Страна: США
Жанр: Ужасы, Триллер, Детектив
Продолжительность: 01:27:25
Перевод: Любительский (двухголосый)[DeadSno & den904]
Режиссер: Виктор Гарсия
В ролях: Питер Фачинелли, София Майлс, Наталия Рамос, Каролина Гуерра, Себастьян Мартинез, Густаво Ангарита, Хуан Пабло Гамбоа, Джульета Салазар, Татьяна Рентериа...
Описание: Герой, вместе со своей невестой, направляется на встречу со своей дочерью от прежнего брака, чтобы восстановить с ней отношения после смерти ее матери. По дороге они попадают в автомобильную аварию и останавливаются отдохнуть в гостинице, расположенной весьма удаленно от цивилизации. Там они обнаруживают, что хозяин гостиницы держит в подвале маленькую девочку, освободив которую герои навлекают на себя большие неприятности...
Доп. информация: 16+ зрителям, достигшим 16 лет

Качество: WEB-DLRip
Формат: AVI
Видео кодек: XviD
Аудио кодек: AC3
Видео: XviD; 720x304; 1612 Кбит/сек; 23.976 fps;
Аудио #1: AC-3; 48.0 КГц; 384 Кбит/сек; 6-ch; RUS;
Аудио #2: AC-3; 48.0 КГц; 128 Кбит/сек; 6-ch; ENG;
Примечание: Вшитые английские субтитры (на испанскую речь)

Media INFO

General
Complete name : D:\Фильмы 09.08.2014\The.Damned.2013.L2.WEB-DLRip.1400MB.avi
Format : AVI
Format/Info : Audio Video Interleave
File size : 1.36 GiB
Duration : 1h 27mn
Overall bit rate : 2 223 Kbps
Writing application : VirtualDubMod 1.5.10.3 | www.virtualdub-fr.org || (build 2550/release)
Writing library : VirtualDubMod build 2550/release
Video
ID : 0
Format : MPEG-4 Visual
Format profile : Advanced [email protected]
Format settings, BVOP : 2
Format settings, QPel : No
Format settings, GMC : No warppoints
Format settings, Matrix : Default (H.263)
Muxing mode : Packed bitstream
Codec ID : XVID
Codec ID/Hint : XviD
Duration : 1h 27mn
Bit rate : 1 612 Kbps
Width : 720 pixels
Height : 304 pixels
Display aspect ratio : 2.35:1
Frame rate : 23.976 fps
Color space : YUV
Chroma subsampling : 4:2:0
Bit depth : 8 bits
Scan type : Progressive
Compression mode : Lossy
Bits/(Pixel*Frame) : 0.307
Stream size : 1 008 MiB (73%)
Writing library : XviD 64
Audio #1
ID : 1
Format : AC-3
Format/Info : Audio Coding 3
Mode extension : CM (complete main)
Format settings, Endianness : Big
Codec ID : 2000
Duration : 1h 27mn
Bit rate mode : Constant
Bit rate : 384 Kbps
Channel(s) : 6 channels
Channel positions : Front: L C R, Side: L R, LFE
Sampling rate : 48.0 KHz
Bit depth : 16 bits
Compression mode : Lossy
Stream size : 240 MiB (17%)
Alignment : Split accross interleaves
Audio #2
ID : 2
Format : AC-3
Format/Info : Audio Coding 3
Mode extension : CM (complete main)
Format settings, Endianness : Big
Codec ID : 2000
Duration : 1h 27mn
Bit rate mode : Constant
Bit rate : 128 Kbps
Channel(s) : 6 channels
Channel positions : Front: L C R, Side: L R, LFE
Sampling rate : 48.0 KHz
Bit depth : 16 bits
Compression mode : Lossy
Stream size : 80.0 MiB (6%)
Alignment : Split accross interleaves

Скриншоты



Создавать темы 17-Авг-2014 16:36

[Профиль]  [ЛС] 
Показать сообщения:    
Ответить на тему

Текущее время: 24-Ноя 23:40

Часовой пояс: UTC + 5



Вы не можете начинать темы
Вы не можете отвечать на сообщения
Вы не можете редактировать свои сообщения
Вы не можете удалять свои сообщения
Вы не можете голосовать в опросах
Вы не можете прикреплять файлы к сообщениям
Вы не можете скачивать файлы