Неудержимые 3 / The Expendables 3 (Патрик Хьюз / Patrick Hughes) [2014 г., США, Боевик, триллер, приключения, WEBRip (720p)] MVO + Original Eng

Ответить на тему
 

Slapper ®

Стаж: 3 года 9 месяцев

Сообщений: 2193

Симпатии: 213

Неудержимые 3 / The Expendables 3-«Сборная Голливуда снова в игре»- Год выпуска: 2014
Страна: США, Франция
Жанр: Боевик, триллер, приключения
Продолжительность: 02:06:16-Перевод: Любительский (многоголосый закадровый) BaibaKo
Оригинальная аудиодорожка: Английская
Cубтитры: нет-Режиссер: Патрик Хьюз / Patrick Hughes-В ролях: Сильвестр Сталлоне, Джейсон Стэйтем, Джет Ли, Антонио Бандерас, Уэсли Снайпс, Дольф Лундгрен, Мэл Гибсон, Харрисон Форд, Арнольд Шварценеггер, Келлан Латс, Терри Крюс, Сарай Гивати, Рэнди Кутюр, Ронда Раузи, Роберт Дави, Наталия Гуслистая, Виктор Ортис, Глен Пауэлл-Описание: Отряд наёмников «Неудержимые» во главе с Барни Россом сталкивается лицом к лицу с Конрадом Стоунбэнксом — одним из основателей команды. Росс был вынужден убить Стоунбэнкса после того, как тот стал безжалостным торговцем оружием, но Стоунбэнкс выжил и теперь его цель — это уничтожить «Неудержимых». Росс, чтобы помочь команде победить своего старого врага, набирает новое молодое поколение «Неудержимых».- -Качество: WEBRip (720p)
Формат: MKV
Видео: MPEG-4 AVC / 1280x552 / 23.976 fps / 3873 kbps
Аудио 1: Русский / AC3 2ch / 48 KHz / 384 kbps |MVO|
Аудио 2: Английский / AC3 2ch / 48 KHz / 256 kbps |Original|-

MediaInfo

Формат : Matroska
Версия формата : Version 2
Размер файла : 4,03 Гбайт
Продолжительность : 2 ч. 6 м.
Общий поток : 4572 Кбит/сек
Дата кодирования : UTC 2014-07-29 14:14:54
Программа кодирования : mkvmerge v6.5.0 ('Isn't she lovely') built on Oct 20 2013 12:50:05
Библиотека кодирования : libebml v1.3.0 + libmatroska v1.4.1
Видео
Идентификатор : 1
Формат : AVC
Формат/Информация : Advanced Video Codec
Профиль формата : [email protected]
Параметр CABAC формата : Да
Параметр ReFrames формата : 9 кадров
Идентификатор кодека : V_MPEG4/ISO/AVC
Продолжительность : 2 ч. 6 м.
Битрейт : 3873 Кбит/сек
Ширина : 1280 пикселей
Высота : 552 пикселя
Соотношение сторон : 2,35:1
Режим частоты кадров : Постоянный
Частота кадров : 23,976 кадра/сек
Цветовое пространство : YUV
Субдискретизация насыщенности : 4:2:0
Битовая глубина : 8 бит
Тип развёртки : Прогрессивная
Бит/(Пиксели*Кадры) : 0.229
Размер потока : 3,42 Гбайт (85%)
Библиотека кодирования : x264 core 142 r2409+42 04be48a tMod [[email protected] X86_64]
Настройки программы : cabac=1 / ref=9 / deblock=1:-3:-3 / analyse=0x3:0x133 / me=umh / subme=11 / psy=1 / fade_compensate=0.00 / psy_rd=1.00:0.00 / mixed_ref=1 / me_range=24 / chroma_me=1 / trellis=2 / 8x8dct=1 / cqm=0 / deadzone=21,11 / fast_pskip=1 / chroma_qp_offset=-2 / threads=12 / lookahead_threads=1 / sliced_threads=0 / nr=0 / decimate=0 / interlaced=0 / bluray_compat=0 / constrained_intra=0 / fgo=0 / bframes=7 / b_pyramid=2 / b_adapt=2 / b_bias=0 / direct=1 / weightb=1 / open_gop=0 / weightp=2 / keyint=240 / keyint_min=23 / scenecut=40 / intra_refresh=0 / rc_lookahead=60 / rc=crf / mbtree=1 / crf=17.5000 / qcomp=0.60 / qpmin=0:0:0 / qpmax=69:69:69 / qpstep=4 / ip_ratio=1.40 / aq=1:0.90 / aq-sensitivity=10.00 / aq-factor=1.00:1.00:1.00 / aq2=0 / aq3=0
Язык : English
Default : Да
Forced : Нет
Аудио #1
Идентификатор : 2
Формат : AC-3
Формат/Информация : Audio Coding 3
Расширение режима : CM (complete main)
Параметр Endianness формата : Big
Идентификатор кодека : A_AC3
Продолжительность : 2 ч. 6 м.
Вид битрейта : Постоянный
Битрейт : 384 Кбит/сек
Каналы : 2 канала
Расположение каналов : Front: L R
Частота : 44,1 КГц
Битовая глубина : 16 бит
Метод сжатия : С потерями
Размер потока : 347 Мбайт (8%)
Язык : Russian
Default : Да
Forced : Да
Аудио #2
Идентификатор : 3
Формат : AC-3
Формат/Информация : Audio Coding 3
Расширение режима : CM (complete main)
Параметр Endianness формата : Big
Идентификатор кодека : A_AC3
Продолжительность : 2 ч. 6 м.
Вид битрейта : Постоянный
Битрейт : 224 Кбит/сек
Каналы : 2 канала
Расположение каналов : Front: L R
Частота : 48,0 КГц
Битовая глубина : 16 бит
Метод сжатия : С потерями
Размер потока : 202 Мбайт (5%)
Язык : English
Default : Нет
Forced : Нет
-

Создавать темы 18-Авг-2014 08:50

[Профиль]  [ЛС] 

BendeR98

Стаж: 4 года 9 месяцев

Сообщений: 281

Симпатии: 10

Когда нормальный, чистый звук?

Создавать темы 18-Авг-2014 16:03

[Профиль]  [ЛС] 
Показать сообщения:    
Ответить на тему

Текущее время: 23-Авг 01:40

Часовой пояс: UTC + 5



Вы не можете начинать темы
Вы не можете отвечать на сообщения
Вы не можете редактировать свои сообщения
Вы не можете удалять свои сообщения
Вы не можете голосовать в опросах
Вы не можете прикреплять файлы к сообщениям
Вы не можете скачивать файлы