Билет в один конец (Павел Дудин) [2012 г., фантастика, триллер, HDRip]

Ответить на тему
 

igor1968 ®

Стаж: 5 лет 6 месяцев

Сообщений: 366

Симпатии: 197

«Жить чтобы умереть чтобы жить» Год выпуска: 2012
Жанр: фантастика, триллер
Продолжительность: 01:21:14.279
Перевод:не требуется
Субтитры: Вшитые не убираемые анг.
Режиссер: Павел Дудин

В ролях: Ирина Юсупова
Александр Хващинский
Михаил Ларионов
Анастасия Суворкина
Алиса Мелехина
Сергей Холмогоров
Евгений Щетинин
Пётр Берсименко

У героини фильма Ивы погибает дочь. Её сбивает машина. На похоронах Славик, друг Ивы предлагает ей увидеть дочь. Это возможно при помощи некой машины, которую изобрёл Никола Тесла — внук знаменитого Теслы. Машина может замкнуть временные кольца и тогда «ушедший» и тот, кто за ним пришёл, могут оказаться точно в том месте, где умер человек, и остановить смерть. Но у машины есть побочный эффект. Пребывая в магнитном поле, сгенерированным установкой, человек стремительно стареет. Одна минута пребывания в поле приравнивается к одному году жизни. Ива подписывает согласие на участие в «погружении»…   Качество: HDTVRip
Формат: AVI
Видео кодек: XviD
Аудио кодек: AC3
Видео: 720x400 (1.80:1), 25 fps, XviD build 62 ~1970 kbps avg, 0.27 bit/pixel
Аудио: 48 kHz, AC3 Dolby Digital, 2/0 (L,R) ch, ~448.00 kbps avg

MediaInfo

General
Complete name : Bilet v odin konetc_(2012)_HDRip.avi
Format : AVI
Format/Info : Audio Video Interleave
Format profile : OpenDML
Format settings : rec
File size : 1.38 GiB
Duration : 1h 21mn
Overall bit rate : 2 426 Kbps
Writing application : AVI-Mux GUI 1.17.8.3, Feb 16 201019:42:50
Video
ID : 0
Format : MPEG-4 Visual
Format profile : Advanced [email protected]
Format settings, BVOP : No
Format settings, QPel : No
Format settings, GMC : No warppoints
Format settings, Matrix : Default (H.263)
Codec ID : XVID
Codec ID/Hint : XviD
Duration : 1h 21mn
Bit rate : 1 972 Kbps
Width : 720 pixels
Height : 400 pixels
Display aspect ratio : 16:9
Frame rate : 25.000 fps
Color space : YUV
Chroma subsampling : 4:2:0
Bit depth : 8 bits
Scan type : Progressive
Compression mode : Lossy
Bits/(Pixel*Frame) : 0.274
Stream size : 1.12 GiB (81%)
Writing library : XviD 62
Audio
ID : 1
Format : AC-3
Format/Info : Audio Coding 3
Mode extension : CM (complete main)
Format settings, Endianness : Big
Codec ID : 2000
Duration : 1h 21mn
Bit rate mode : Constant
Bit rate : 448 Kbps
Channel(s) : 2 channels
Channel positions : Front: L R
Sampling rate : 48.0 KHz
Bit depth : 16 bits
Compression mode : Lossy
Stream size : 260 MiB (18%)
Alignment : Aligned on interleaves
Interleave, duration : 64 ms (1.60 video frames)
Interleave, preload duration : 192 ms
Title : Rus(2)


Последний раз редактировалось: igor1968 (2014-08-26 22:50), всего редактировалось 1 раз

Создавать темы 18-Авг-2014 13:35

[Профиль]  [ЛС] 

den11111

Стаж: 4 года 6 месяцев

Сообщений: 58

Симпатии: 2

крутень какая)более крутого фильма русские не снимали))интересно вам реально на столько делать нечего что вы смотрите такие фильмы)7 личеров)

Создавать темы 18-Авг-2014 18:07

[Профиль]  [ЛС] 

MuCTuK

Стаж: 4 года 11 месяцев

Сообщений: 2

хрень полная

Создавать темы 19-Авг-2014 18:07

[Профиль]  [ЛС] 

Vasilisa

Стаж: 4 года 7 месяцев

Сообщений: 49

igor1968, спасибо!качаю)

Создавать темы 23-Авг-2014 22:17

[Профиль]  [ЛС] 

Grock

Стаж: 6 лет 7 месяцев

Сообщений: 637

Симпатии: 113

igor1968, Укажите перевод

Создавать темы 26-Авг-2014 12:36

[Профиль]  [ЛС] 

Элина

Стаж: 5 лет 7 месяцев

Сообщений: 28

Симпатии: 1

дайте пожалуйста загрузку

Создавать темы 02-Янв-2016 20:01

[Профиль]  [ЛС] 

Элина

Стаж: 5 лет 7 месяцев

Сообщений: 28

Симпатии: 1

пожалуйста помогите докачать фильм, дайте загрузку!!!!!!!!

Создавать темы 20-Янв-2016 15:05

[Профиль]  [ЛС] 
Показать сообщения:    
Ответить на тему

Текущее время: 20-Сен 07:15

Часовой пояс: UTC + 5



Вы не можете начинать темы
Вы не можете отвечать на сообщения
Вы не можете редактировать свои сообщения
Вы не можете удалять свои сообщения
Вы не можете голосовать в опросах
Вы не можете прикреплять файлы к сообщениям
Вы не можете скачивать файлы